<?xml version="1.0" standalone="no"?>
<!DOCTYPE svg PUBLIC "-//W3C//DTD SVG 1.1//EN" "http://www.w3.org/Graphics/SVG/1.1/DTD/svg11.dtd" >
<svg>
<metadata>
Created by FontForge 20090622 at Thu Mar 30 08:28:45 2017
 By deploy user
Copyright &#194;&#169; 1988, 1990, 1993, 2003 Linotype Library GmbH, www.linotype.com. All rights reserved. Copyright &#194;&#169; 1988, 1990, 1993 Adobe Systems Incorporated. All Rights Reserved.
</metadata>
<defs>
<font id="HelveticaNeueLTPro-Cn" horiz-adv-x="463" >
  <font-face 
    font-family="HelveticaNeueLT Pro 57 Cn"
    font-weight="400"
    font-stretch="normal"
    units-per-em="1000"
    panose-1="2 11 5 6 3 5 2 3 2 4"
    ascent="714"
    descent="-286"
    x-height="536"
    cap-height="714"
    bbox="-164 -214 1000 943"
    underline-thickness="50"
    underline-position="-50"
    unicode-range="U+000D-U+FB02"
  />
<missing-glyph horiz-adv-x="512" 
d="M222 117v67h56v-67h-56zM225 234l-2 17q0 56 13 81q7 13 18 27.5t28 31.5q16 15 26 26.5t15 21t7 18t2 17.5q0 36 -22.5 60.5t-53.5 24.5t-53.5 -22t-28.5 -73l-50 8q7 72 44 104.5t91 32.5t89 -35.5t35 -95.5q0 -32 -12.5 -58.5t-50.5 -61.5q-37 -33 -43 -52
q-6 -20 -6 -72h-46zM462 50v617h-412v-617h412zM512 718v-718h-512v718h512z" />
    <glyph glyph-name=".notdef" horiz-adv-x="512" 
d="M222 117v67h56v-67h-56zM225 234l-2 17q0 56 13 81q7 13 18 27.5t28 31.5q16 15 26 26.5t15 21t7 18t2 17.5q0 36 -22.5 60.5t-53.5 24.5t-53.5 -22t-28.5 -73l-50 8q7 72 44 104.5t91 32.5t89 -35.5t35 -95.5q0 -32 -12.5 -58.5t-50.5 -61.5q-37 -33 -43 -52
q-6 -20 -6 -72h-46zM462 50v617h-412v-617h412zM512 718v-718h-512v718h512z" />
    <glyph glyph-name=".null" horiz-adv-x="500" 
 />
    <glyph glyph-name=".null" horiz-adv-x="500" 
 />
    <glyph glyph-name="nonmarkingreturn" unicode="&#xd;" horiz-adv-x="0" 
 />
    <glyph glyph-name="space" unicode=" " horiz-adv-x="240" 
 />
    <glyph glyph-name="numbersign" unicode="#" horiz-adv-x="480" 
d="M179 271h106l19 154h-106zM105 205h-82v66h90l19 154h-87v66h96l25 203h66l-25 -203h106l25 203h66l-25 -203h78v-66h-87l-19 -154h83v-66h-91l-26 -205h-66l26 205h-106l-26 -205h-66z" />
    <glyph glyph-name="dollar" unicode="$" horiz-adv-x="480" 
d="M217 766h42v-58q93 -5 135.5 -53t44.5 -141h-88q0 24 -4.5 45.5t-15.5 37.5t-28.5 26t-43.5 13v-245l70 -24t64.5 -32.5t47 -54t18.5 -87.5q0 -56 -18 -94.5t-46.5 -63t-64 -36t-71.5 -13.5v-94h-42v94q-57 2 -94.5 18.5t-60 46t-32 71.5t-9.5 96h88q0 -27 2 -54
t12.5 -49t32.5 -37.5t61 -19.5v262q-34 11 -67.5 23.5t-60 34t-43 54.5t-16.5 84q0 24 6.5 55.5t26.5 60.5t57 50.5t97 25.5v58zM217 636q-46 -6 -70.5 -34t-24.5 -77q0 -51 26.5 -77.5t68.5 -42.5v231zM259 58q48 4 78 36.5t30 84.5q0 28 -8.5 48t-23 35t-34.5 25.5
t-42 18.5v-248z" />
    <glyph glyph-name="percent" unicode="%" horiz-adv-x="759" 
d="M582 -14q-45 0 -71 16t-39.5 42.5t-17 61t-3.5 72.5q0 37 3.5 72t17 61.5t39.5 42.5t71 16t71 -16t39.5 -42.5t17 -61.5t3.5 -72q0 -38 -3.5 -72.5t-17 -61t-39.5 -42.5t-71 -16zM177 324q-45 0 -71 16t-39.5 42.5t-17 61t-3.5 72.5q0 37 3.5 72t17 61.5t39.5 42.5t71 16
t71 -16t39.5 -42.5t17 -61.5t3.5 -72q0 -38 -3.5 -72.5t-17 -61t-39.5 -42.5t-71 -16zM582 40q21 0 33 10t17.5 28t7 43.5t1.5 56.5t-1.5 56.5t-7 43.5t-17.5 28t-33 10t-33 -10t-17.5 -28t-7 -43.5t-1.5 -56.5t1.5 -56.5t7 -43.5t17.5 -28t33 -10zM496 708h70l-310 -722
h-70zM177 378q21 0 33 10t17.5 28t7 43.5t1.5 56.5t-1.5 56.5t-7 43.5t-17.5 28t-33 10t-33 -10t-17.5 -28t-7 -43.5t-1.5 -56.5t1.5 -56.5t7 -43.5t17.5 -28t33 -10z" />
    <glyph glyph-name="ampersand" unicode="&#x26;" horiz-adv-x="556" 
d="M416 198q11 27 17.5 59t10.5 80h78q0 -20 -5.5 -50t-13.5 -61t-18.5 -57.5t-20.5 -39.5l92 -129h-95l-48 67q-41 -40 -79.5 -60.5t-96.5 -20.5q-65 0 -106.5 22t-65 53t-32 65t-8.5 58q0 57 26 104t71 81l52 39l-22 36q-20 30 -36 61t-16 69q0 31 11.5 57t32 44.5
t47.5 28.5t57 10q69 0 110 -31.5t41 -104.5q0 -26 -8.5 -48t-22 -41t-31.5 -35.5l-36 -31.5l-26 -22zM215 354q-43 -26 -72.5 -66t-29.5 -97q0 -33 10.5 -57.5t28.5 -41.5t42 -25.5t50 -8.5q42 0 72 20t56 49zM257 471q24 23 44 47t20 60q0 31 -20 50.5t-52 19.5
t-51.5 -19.5t-19.5 -50.5q0 -24 13 -50t30 -51l17 -24z" />
    <glyph glyph-name="quoteright" unicode="&#x2019;" horiz-adv-x="240" 
d="M74 714h92v-87q0 -29 -2.5 -55t-11.5 -48t-27.5 -38.5t-50.5 -25.5v47q26 13 35 30t9 47v24h-44v106z" />
    <glyph glyph-name="parenleft" unicode="(" horiz-adv-x="241" 
d="M237 714q-61 -100 -85.5 -215.5t-24.5 -233.5q0 -122 27 -231.5t83 -217.5h-48q-72 97 -109 213t-37 236q0 121 37 235.5t109 213.5h48z" />
    <glyph glyph-name="parenright" unicode=")" horiz-adv-x="241" 
d="M4 -184q61 100 85.5 215.5t24.5 233.5q0 122 -27 231.5t-83 217.5h48q72 -97 109 -213t37 -236q0 -121 -37 -235.5t-109 -213.5h-48z" />
    <glyph glyph-name="asterisk" unicode="*" horiz-adv-x="352" 
d="M146 714h60v-119l107 41l22 -58l-113 -34l76 -94l-50 -37l-72 102l-72 -102l-50 37l76 94l-113 34l22 58l107 -41v119z" />
    <glyph glyph-name="plus" unicode="+" horiz-adv-x="600" 
d="M267 220h-220v66h220v220h66v-220h220v-66h-220v-220h-66v220z" />
    <glyph glyph-name="comma" unicode="," horiz-adv-x="240" 
d="M74 106h92v-87q0 -29 -2.5 -55t-11.5 -48t-27.5 -38.5t-50.5 -25.5v47q26 13 35 30t9 47v24h-44v106z" />
    <glyph glyph-name="hyphen" unicode="-" horiz-adv-x="352" 
d="M54 323h244v-78h-244v78z" />
    <glyph glyph-name="period" unicode="." horiz-adv-x="240" 
d="M74 106h92v-106h-92v106z" />
    <glyph glyph-name="slash" unicode="/" horiz-adv-x="278" 
d="M222 728h66l-232 -742h-66z" />
    <glyph glyph-name="zero" unicode="0" horiz-adv-x="480" 
d="M126 344q0 -56 2.5 -108.5t14 -93.5t34 -65.5t63.5 -24.5q40 0 63 24.5t34.5 65.5t14 93.5t2.5 108.5q0 58 -2.5 112t-14 95.5t-34.5 66t-63 24.5q-41 0 -63.5 -24.5t-34 -66t-14 -95.5t-2.5 -112zM240 -14q-72 0 -112.5 32.5t-60.5 83.5t-24.5 115t-4.5 127q0 39 1.5 81
t8 82.5t19.5 77t35.5 64t56 43.5t81.5 16q72 0 112.5 -32.5t60.5 -84.5t24.5 -117t4.5 -130q0 -37 -1.5 -78t-8 -81t-19.5 -76t-35.5 -63.5t-56 -43.5t-81.5 -16z" />
    <glyph glyph-name="one" unicode="1" horiz-adv-x="480" 
d="M67 592q33 2 64 6t55 16t39 34t17 60h60v-708h-84v532h-151v60z" />
    <glyph glyph-name="two" unicode="2" horiz-adv-x="480" 
d="M438 0h-396q0 49 13 91t34 78t48.5 65.5t57.5 55.5l58 49q21 18 38.5 36t30 38t19 43.5t6.5 52.5q0 22 -5.5 45t-17.5 41t-32 29.5t-48 11.5q-41 0 -63.5 -18.5t-33.5 -43t-13 -50.5t-2 -41h-88q0 50 11 91.5t35 71t62.5 46t92.5 16.5q61 0 98.5 -21t58 -50.5t27 -62
t6.5 -55.5q0 -40 -8.5 -72t-24 -59.5t-38.5 -52t-53 -49.5l-100 -87q-29 -25 -49 -55.5t-28 -65.5h304v-78z" />
    <glyph glyph-name="three" unicode="3" horiz-adv-x="480" 
d="M180 399h44q56 0 82 36t26 89q0 24 -5 45.5t-15.5 37.5t-28.5 25.5t-43 9.5q-35 0 -55 -14.5t-30.5 -35.5t-13.5 -45t-3 -43h-88q0 45 11 82.5t34 64.5t58.5 42t84.5 15q55 0 90.5 -17.5t56 -44.5t28 -59.5t7.5 -62.5q0 -54 -26.5 -96t-83.5 -56v-2q60 -12 95.5 -51
t35.5 -114q0 -48 -12.5 -88.5t-37 -69.5t-62.5 -45t-89 -16q-48 0 -81 12.5t-55.5 31.5t-35.5 42.5t-19.5 45.5t-8 39.5t-1.5 25.5v9h88q0 -24 6.5 -49t20 -45.5t35 -33t51.5 -12.5q19 0 39.5 6t36.5 22t26.5 44.5t10.5 73.5q0 63 -31 99t-97 36h-45v66z" />
    <glyph glyph-name="four" unicode="4" horiz-adv-x="480" 
d="M286 708h84v-465h80v-72h-80v-171h-84v171h-256v79zM106 243h180v327h-2z" />
    <glyph glyph-name="five" unicode="5" horiz-adv-x="480" 
d="M97 694h316v-78h-249l-28 -205l2 -2q22 26 55 39.5t69 13.5q81 0 129.5 -60.5t48.5 -172.5q0 -50 -11.5 -94t-36 -77t-64 -52.5t-94.5 -19.5q-63 0 -101 22.5t-59 54t-27.5 65t-6.5 54.5h88q0 -14 3.5 -36t15 -43t33 -36t56.5 -15q37 0 60 18.5t35.5 46.5t16.5 60t4 59
q0 29 -6 58t-19.5 51.5t-36.5 36.5t-56 14q-23 0 -41.5 -8.5t-31.5 -19.5t-20 -23t-7 -18l-76 4z" />
    <glyph glyph-name="six" unicode="6" horiz-adv-x="480" 
d="M133 216q0 -28 5 -57t18 -53t34.5 -39t54.5 -15t54.5 15t34.5 39t18 53t5 57t-4.5 57t-16.5 53t-34 39t-57 15t-57 -15t-34 -39t-16.5 -53t-4.5 -57zM341 538q0 45 -24 74.5t-69 29.5q-29 0 -50 -13t-34.5 -34t-21.5 -46t-12.5 -48.5t-5.5 -43t-1 -28.5v-56h2
q5 10 16 23.5t27.5 26t39.5 21t52 8.5q46 0 80.5 -16.5t58 -46t35 -71t11.5 -90.5q0 -51 -12.5 -95.5t-38 -77t-63 -51t-86.5 -18.5t-83.5 14.5t-58 40t-37 58.5t-20.5 70.5t-9 76.5t-2 76q0 40 1.5 84.5t8.5 87.5t20.5 82t37.5 68t60 46.5t87 17.5q61 0 97 -22t54 -50.5
t23 -57t5 -40.5h-88z" />
    <glyph glyph-name="seven" unicode="7" horiz-adv-x="480" 
d="M38 694h404v-73q-29 -38 -67.5 -100t-71.5 -143q-34 -82 -60.5 -175.5t-36.5 -202.5h-98q20 164 86 322q64 157 168 294h-324v78z" />
    <glyph glyph-name="eight" unicode="8" horiz-adv-x="480" 
d="M125 198q0 -32 6.5 -58.5t20.5 -46t35.5 -30.5t52.5 -11q61 0 88 41.5t27 104.5t-27 104.5t-88 41.5q-31 0 -52.5 -11t-35.5 -30.5t-20.5 -46.5t-6.5 -58zM240 642q-49 0 -71 -32.5t-22 -83.5t22 -83.5t71 -32.5q48 0 70.5 32.5t22.5 83.5t-22.5 83.5t-70.5 32.5zM37 195
q0 141 125 182q-54 22 -78.5 58t-24.5 93q0 87 48 133.5t133 46.5t133 -46.5t48 -133.5q0 -57 -24.5 -93t-78.5 -58q125 -41 125 -182q0 -35 -9.5 -72t-32.5 -67.5t-62 -50t-99 -19.5t-99 19.5t-62 50t-32.5 67.5t-9.5 72z" />
    <glyph glyph-name="nine" unicode="9" horiz-adv-x="480" 
d="M347 478q0 28 -5 57t-18 53t-34.5 39t-54.5 15t-54.5 -15t-34.5 -39t-18 -53t-5 -57t4.5 -57t16.5 -53t34 -39t57 -15t57 15t34 39t16.5 53t4.5 57zM139 156q0 -45 24 -74.5t69 -29.5q29 0 50 13.5t34.5 34t21.5 45.5t12.5 48.5t5.5 43t1 28.5v56h-2q-5 -10 -16 -23.5
t-27.5 -26t-39.5 -21t-52 -8.5q-46 0 -80.5 16.5t-58 46t-35 70.5t-11.5 91q0 51 12.5 95.5t38 77t62.5 51t87 18.5q49 0 83.5 -15t58 -40t37 -58.5t20.5 -70.5t9 -76.5t2 -75.5q0 -40 -1.5 -84.5t-8.5 -87.5t-20.5 -82t-37.5 -68t-60 -46.5t-87 -17.5q-62 0 -97.5 22
t-53.5 50.5t-23 57t-5 40.5h88z" />
    <glyph glyph-name="colon" unicode=":" horiz-adv-x="240" 
d="M74 106h92v-106h-92v106zM74 506h92v-106h-92v106z" />
    <glyph glyph-name="semicolon" unicode=";" horiz-adv-x="240" 
d="M74 506h92v-106h-92v106zM74 106h92v-87q0 -29 -2.5 -55t-11.5 -48t-27.5 -38.5t-50.5 -25.5v47q26 13 35 30t9 47v24h-44v106z" />
    <glyph glyph-name="semicolon" unicode="&#x37e;" horiz-adv-x="240" 
d="M74 506h92v-106h-92v106zM74 106h92v-87q0 -29 -2.5 -55t-11.5 -48t-27.5 -38.5t-50.5 -25.5v47q26 13 35 30t9 47v24h-44v106z" />
    <glyph glyph-name="less" unicode="&#x3c;" horiz-adv-x="600" 
d="M47 283l506 231v-66l-428 -195l428 -195v-66l-506 231v60z" />
    <glyph glyph-name="equal" unicode="=" horiz-adv-x="600" 
d="M47 184h506v-66h-506v66zM47 388h506v-66h-506v66z" />
    <glyph glyph-name="greater" unicode="&#x3e;" horiz-adv-x="600" 
d="M47 58l428 195l-428 195v66l506 -231v-60l-506 -231v66z" />
    <glyph glyph-name="question" unicode="?" horiz-adv-x="444" 
d="M165 96h92v-96h-92v96zM35 504q0 44 11 83.5t33.5 69.5t58 47.5t83.5 17.5q45 0 80 -14.5t59 -39.5t36.5 -59.5t12.5 -74.5q0 -38 -13 -75t-37 -66q-4 -5 -15.5 -18l-24.5 -27l-24 -26.5t-14 -16.5q-19 -24 -25.5 -50.5t-6.5 -49.5v-19h-78q0 30 2.5 63t16.5 60
q9 16 22.5 34t28 35l28 32.5l22.5 26.5q17 23 23.5 45.5t6.5 56.5q0 22 -6 42t-18 35.5t-30.5 24.5t-42.5 9q-36 0 -57 -16t-31.5 -38.5t-13.5 -48t-3 -43.5h-84z" />
    <glyph glyph-name="at" unicode="@" horiz-adv-x="800" 
d="M546 550h56l-84 -282q-4 -13 -6.5 -23.5t-2.5 -21.5t7.5 -18.5t21.5 -7.5q34 0 64.5 18.5t53 49t36 69.5t13.5 81q0 57 -23.5 103.5t-65 79.5t-97 51.5t-119.5 18.5q-65 0 -120.5 -24t-96.5 -66t-64.5 -98.5t-23.5 -122.5q0 -67 23.5 -124t64.5 -98.5t96.5 -65
t120.5 -23.5q187 0 271 111h63q-48 -84 -132.5 -127.5t-201.5 -43.5q-77 0 -144.5 29t-118 79.5t-79.5 118t-29 144.5t29 144.5t79.5 118t118 79.5t144.5 29q81 0 149 -23t117.5 -64t77 -98t27.5 -124q0 -65 -23.5 -117t-61 -89t-83.5 -56.5t-90 -19.5q-30 0 -48 14t-22 45
h-2q-23 -24 -52 -41.5t-73 -17.5q-27 0 -53 11t-45.5 30.5t-31.5 47.5t-12 61q0 52 16.5 102.5t47.5 90.5t74 64.5t96 24.5q37 0 67.5 -18t46.5 -64h2zM240 293q0 -42 26 -69t68 -27q35 0 63.5 22.5t49 55t31.5 69t11 65.5q0 16 -5.5 34t-16 32.5t-25.5 24t-34 9.5
q-36 0 -67 -20.5t-53.5 -52.5t-35 -70t-12.5 -73z" />
    <glyph glyph-name="A" unicode="A" horiz-adv-x="500" 
d="M155 268h192l-91 345h-2zM198 714h118l192 -714h-92l-51 196h-228l-53 -196h-92z" />
    <glyph glyph-name="B" unicode="B" horiz-adv-x="519" 
d="M146 406h101q14 0 34.5 3t40 15t33 36t13.5 65q0 57 -28.5 87t-94.5 30h-99v-236zM58 714h219q35 0 68 -9t58.5 -30.5t41 -56.5t15.5 -87q0 -24 -7 -48t-20.5 -44t-33 -35t-43.5 -22v-2q66 -16 96.5 -63t30.5 -113q0 -109 -59.5 -156.5t-171.5 -47.5h-194v714zM146 72
h120q35 0 59 11t38.5 29t21 42t6.5 50q0 37 -11 62.5t-30 42t-44.5 24t-54.5 7.5h-105v-268z" />
    <glyph glyph-name="C" unicode="C" horiz-adv-x="519" 
d="M495 245q-3 -51 -15.5 -97.5t-37.5 -82.5t-65.5 -57.5t-98.5 -21.5q-76 0 -121.5 32.5t-69.5 85.5t-31.5 119t-7.5 134q0 67 8 133.5t33 119.5t70 85.5t119 32.5q109 0 158.5 -58t52.5 -164h-92q-1 30 -7 57.5t-19.5 48t-36 32.5t-56.5 12q-46 0 -73 -23.5t-41.5 -64
t-19 -95t-4.5 -116.5t4.5 -116.5t19 -95t41.5 -64t73 -23.5q40 0 64 17t37.5 44t18 60t5.5 66h92z" />
    <glyph glyph-name="D" unicode="D" horiz-adv-x="556" 
d="M67 714h191q83 0 132.5 -28t75.5 -76.5t34 -113.5t8 -139q0 -68 -10 -132t-37 -114t-74 -80.5t-120 -30.5h-200v714zM155 72h92q57 0 90.5 26.5t51 67.5t22.5 91.5t5 98.5q0 52 -4 103t-20.5 91.5t-50.5 66t-94 25.5h-92v-570z" />
    <glyph glyph-name="E" unicode="E" 
d="M58 714h369v-78h-281v-224h265v-78h-265v-256h293v-78h-381v714z" />
    <glyph glyph-name="F" unicode="F" horiz-adv-x="444" 
d="M58 714h369v-78h-281v-224h265v-78h-265v-334h-88v714z" />
    <glyph glyph-name="G" unicode="G" horiz-adv-x="537" 
d="M397 516q-2 28 -8.5 53.5t-20 44.5t-35.5 30.5t-55 11.5q-46 0 -73 -23.5t-41.5 -64t-19 -95t-4.5 -116.5t4.5 -116.5t19 -95t41.5 -64t73 -23.5t72 24.5t39 60.5t16.5 78t3.5 78h-141v72h221v-371h-66v97h-2q-14 -46 -54 -78.5t-100 -32.5q-70 0 -113 31t-66.5 82.5
t-31.5 118.5t-8 139q0 67 8 133.5t33 119.5t70 85.5t119 32.5q51 0 86.5 -13t59 -33.5t36.5 -45.5t19.5 -48.5t8 -43t1.5 -28.5h-92z" />
    <glyph glyph-name="H" unicode="H" horiz-adv-x="537" 
d="M479 0h-88v344h-245v-344h-88v714h88v-292h245v292h88v-714z" />
    <glyph glyph-name="I" unicode="I" horiz-adv-x="204" 
d="M58 714h88v-714h-88v714z" />
    <glyph glyph-name="J" unicode="J" horiz-adv-x="426" 
d="M368 205q0 -48 -7.5 -88t-27 -69t-54.5 -45.5t-90 -16.5q-45 0 -76.5 13.5t-51.5 36t-29.5 52t-9.5 61.5v59h84v-52q0 -45 18.5 -71.5t63.5 -26.5q30 0 48 9.5t28 28.5t13 47t3 65v506h88v-509z" />
    <glyph glyph-name="K" unicode="K" horiz-adv-x="500" 
d="M58 714h88v-346h2l247 346h98l-216 -298l234 -416h-98l-193 344l-74 -101v-243h-88v714z" />
    <glyph glyph-name="L" unicode="L" horiz-adv-x="444" 
d="M58 714h88v-636h290v-78h-378v714z" />
    <glyph glyph-name="M" unicode="M" horiz-adv-x="704" 
d="M60 714h148l143 -566h2l143 566h148v-714h-88v624h-2l-158 -624h-88l-158 624h-2v-624h-88v714z" />
    <glyph glyph-name="N" unicode="N" horiz-adv-x="556" 
d="M58 714h114l236 -596h2v596h88v-714h-121l-229 578h-2v-578h-88v714z" />
    <glyph glyph-name="O" unicode="O" horiz-adv-x="556" 
d="M278 656q-46 0 -73 -23.5t-41.5 -64t-19 -95t-4.5 -116.5t4.5 -116.5t19 -95t41.5 -64t73 -23.5t73 23.5t41.5 64t19 95t4.5 116.5t-4.5 116.5t-19 95t-41.5 64t-73 23.5zM278 728q74 0 119 -32.5t70 -85.5t33 -119.5t8 -133.5q0 -68 -8 -134t-33 -119t-70 -85.5
t-119 -32.5t-119 32.5t-70 85.5t-33 119t-8 134q0 67 8 133.5t33 119.5t70 85.5t119 32.5z" />
    <glyph glyph-name="P" unicode="P" horiz-adv-x="481" 
d="M146 374h105q48 0 83 34t35 105q0 60 -29 94.5t-95 34.5h-99v-268zM58 714h182q15 0 37.5 -1t47 -6.5t49 -18t44 -35.5t31.5 -58t12 -86q0 -50 -15 -88.5t-42.5 -65t-65.5 -40t-83 -13.5h-109v-302h-88v714z" />
    <glyph glyph-name="Q" unicode="Q" horiz-adv-x="556" 
d="M274 137l49 54l66 -60q17 42 22 99.5t5 126.5q0 62 -4.5 116.5t-19 95t-41.5 64t-73 23.5t-73 -23.5t-41.5 -64t-19 -95t-4.5 -116.5t4.5 -116.5t19 -95t41.5 -64t73 -23.5q39 0 65 17zM401 22q-23 -17 -54 -26.5t-69 -9.5q-74 0 -119 32.5t-70 85.5t-33 119t-8 134
q0 67 8 133.5t33 119.5t70 85.5t119 32.5t119 -32.5t70 -85.5t33 -119.5t8 -133.5q0 -38 -2.5 -77t-8.5 -75.5t-17.5 -69.5t-29.5 -60l72 -66l-49 -52z" />
    <glyph glyph-name="R" unicode="R" horiz-adv-x="519" 
d="M146 390h87q19 0 44.5 2t48.5 15t38.5 41t15.5 80q0 54 -33 84t-96 30h-105v-252zM58 714h231q85 0 134 -47t49 -132q0 -29 -5.5 -58t-18.5 -53.5t-34 -43t-52 -25.5v-2q47 -5 72.5 -39t28.5 -80l6 -122q1 -30 4 -49t8 -31.5t11.5 -19.5t14.5 -12h-106q-6 6 -10 18
t-7 26.5t-4.5 30t-2.5 28.5l-6 111q-3 37 -13.5 57.5t-25.5 31t-32.5 13t-34.5 2.5h-119v-318h-88v714z" />
    <glyph glyph-name="S" unicode="S" horiz-adv-x="500" 
d="M361 529q0 28 -5.5 51.5t-18.5 40t-34.5 26t-52.5 9.5q-57 0 -87.5 -29.5t-30.5 -86.5q0 -50 25 -77t62.5 -43t81 -28.5t81 -33.5t62.5 -58t25 -102q0 -62 -20.5 -103t-52.5 -65t-71.5 -34t-77.5 -10q-63 0 -104.5 16t-66 46t-35 74.5t-10.5 101.5h88q0 -30 3 -59.5
t16 -53.5t40 -38.5t75 -14.5q26 0 49 9t39.5 25.5t26 39.5t9.5 52q0 38 -14.5 62t-38 40.5t-54 27l-62 21.5t-62 24.5t-54 35t-38 54.5t-14.5 82q0 25 7 58.5t29.5 64.5t63.5 52.5t109 21.5q103 0 150.5 -49.5t49.5 -149.5h-88z" />
    <glyph glyph-name="T" unicode="T" 
d="M275 0h-88v636h-179v78h447v-78h-180v-636z" />
    <glyph glyph-name="U" unicode="U" horiz-adv-x="519" 
d="M50 714h88v-502q0 -79 27.5 -116.5t93.5 -37.5q70 0 96 39.5t26 114.5v502h88v-502q0 -103 -52.5 -164.5t-157.5 -61.5q-109 0 -159 57t-50 169v502z" />
    <glyph glyph-name="V" unicode="V" horiz-adv-x="462" 
d="M-2 714h92l140 -613h2l140 613h92l-180 -714h-112z" />
    <glyph glyph-name="W" unicode="W" horiz-adv-x="722" 
d="M8 714h88l109 -584h2l101 584h106l101 -584h2l109 584h88l-147 -714h-107l-98 578h-2l-103 -578h-107z" />
    <glyph glyph-name="X" unicode="X" horiz-adv-x="481" 
d="M16 714h98l130 -267l131 267h92l-178 -351l190 -363h-98l-142 286l-145 -286h-92l190 363z" />
    <glyph glyph-name="Y" unicode="Y" horiz-adv-x="462" 
d="M-2 714h97l136 -334l141 334h92l-189 -434v-280h-88v280z" />
    <glyph glyph-name="Z" unicode="Z" 
d="M23 74l321 562h-303v78h395v-81l-321 -555h325v-78h-417v74z" />
    <glyph glyph-name="bracketleft" unicode="[" horiz-adv-x="259" 
d="M78 714h179v-66h-101v-766h101v-66h-179v898z" />
    <glyph glyph-name="backslash" unicode="\" horiz-adv-x="278" 
d="M-10 728h66l232 -742h-66z" />
    <glyph glyph-name="bracketright" unicode="]" horiz-adv-x="259" 
d="M181 -184h-179v66h101v766h-101v66h179v-898z" />
    <glyph glyph-name="asciicircum" unicode="^" horiz-adv-x="600" 
d="M276 694h48l229 -433h-66l-187 361l-187 -361h-66z" />
    <glyph glyph-name="underscore" unicode="_" horiz-adv-x="500" 
d="M0 -75h500v-50h-500v50z" />
    <glyph glyph-name="quoteleft" unicode="&#x2018;" horiz-adv-x="240" 
d="M166 460h-92v87q0 28 2.5 54.5t11.5 48.5t27.5 38.5t50.5 25.5v-47q-26 -13 -35 -30t-9 -47v-24h44v-106z" />
    <glyph glyph-name="a" unicode="a" horiz-adv-x="444" 
d="M301 292q-12 -12 -30.5 -20t-39 -14.5l-40 -13t-33.5 -15.5q-20 -13 -30.5 -31.5t-10.5 -53.5q0 -42 16.5 -67t59.5 -25q21 0 40.5 8t34.5 22t24 32.5t9 39.5v138zM42 374q0 91 42 133.5t138 42.5q61 0 94 -16t48.5 -40t18 -50.5t2.5 -47.5v-299q0 -17 3 -30t23 -13
q8 0 12.5 1.5t7.5 3.5v-60q-5 -1 -19 -3t-30 -2q-12 0 -24.5 1t-24 7.5t-19 20.5t-8.5 40h-2q-20 -36 -55.5 -56.5t-73.5 -20.5q-75 0 -110.5 42t-35.5 114q0 57 24.5 94.5t76.5 53.5l113 34q23 7 35.5 14.5t18 16.5t6.5 21t1 29q0 79 -86 79q-35 0 -53.5 -13.5t-27 -31.5
t-10 -35.5t-1.5 -24.5v-5h-84z" />
    <glyph glyph-name="b" unicode="b" 
d="M55 714h84v-239h2q14 35 48 55t76 20q54 0 86.5 -28.5t49.5 -70.5t22 -91.5t5 -91.5q0 -57 -10 -108t-31 -89.5t-54.5 -61.5t-79.5 -23q-22 0 -41 7t-34.5 18t-26 25.5t-14.5 29.5h-2v-66h-80v714zM134 268q0 -41 4 -79t16 -67t33 -46.5t55 -17.5q29 0 48 15.5t30 43.5
t15.5 66.5t4.5 84.5q0 48 -4.5 87t-15.5 66t-30 42t-48 15q-34 0 -55 -18t-33 -48t-16 -67.5t-4 -76.5z" />
    <glyph glyph-name="c" unicode="c" horiz-adv-x="426" 
d="M310 373q0 19 -4.5 39t-14 36t-26 26t-40.5 10q-20 0 -38.5 -7t-33.5 -30.5t-24 -67.5t-9 -117q0 -26 1.5 -62t11.5 -69t30.5 -56t58.5 -23q27 0 44 13t27 32.5t13.5 43t3.5 45.5h84q0 -32 -8.5 -67t-29 -64.5t-54.5 -49t-84 -19.5q-99 0 -142.5 68t-43.5 207
q0 50 6.5 101.5t27 93t58 68t99.5 26.5q55 0 88.5 -19t52 -46.5t24.5 -58t6 -53.5h-84z" />
    <glyph glyph-name="d" unicode="d" 
d="M408 0h-80v66h-2q-4 -15 -14.5 -29.5t-26 -25.5t-34.5 -18t-41 -7q-48 0 -81 20.5t-54 57.5t-30.5 89t-9.5 115q0 42 5 91.5t22.5 91.5t51 70.5t90.5 28.5q36 0 70 -20t48 -55h2v239h84v-714zM123 268q0 -48 4.5 -87t15.5 -66t30 -42t48 -15q34 0 55.5 15.5t33 43.5
t15.5 66.5t4 84.5q0 39 -4 76.5t-16 67.5t-33 48t-55 18q-29 0 -48 -15t-30 -42t-15.5 -66t-4.5 -87z" />
    <glyph glyph-name="e" unicode="e" horiz-adv-x="444" 
d="M125 258q0 -31 1.5 -67t11.5 -67t30.5 -51.5t59.5 -20.5q30 0 48 13.5t27.5 33t12.5 41t3 36.5h84q0 -21 -7.5 -53.5t-27.5 -63t-55 -52t-90 -21.5q-99 0 -142.5 68t-43.5 207q0 50 6.5 101.5t27 93t58 68t99.5 26.5q61 0 97 -24t54 -61.5t23 -83.5t5 -89v-34h-282z
M319 324v29q0 22 -4 45.5t-14.5 42.5t-28.5 31t-46 12q-33 0 -52.5 -17.5t-29.5 -40.5t-13 -46.5t-3 -35.5v-20h191z" />
    <glyph glyph-name="f" unicode="f" horiz-adv-x="259" 
d="M80 470h-78v66h78v63q0 61 27.5 92t88.5 31h61v-72h-39q-27 0 -40.5 -11.5t-13.5 -39.5v-63h92v-66h-92v-470h-84v470z" />
    <glyph glyph-name="g" unicode="g" 
d="M408 34q0 -60 -13.5 -101.5t-37.5 -67.5t-57.5 -37.5t-73.5 -11.5q-12 0 -39.5 2t-56 14.5t-52 40t-28.5 77.5h84q3 -37 28 -52.5t58 -15.5q40 0 61.5 13.5t31 32.5t10.5 39.5t1 34.5v70h-2q-14 -34 -47.5 -53t-73.5 -19q-39 0 -66.5 15t-46 39t-29 53.5t-16 59.5
t-7 56.5t-1.5 44.5q0 54 8 105t28.5 90.5t54 63t84.5 23.5q22 0 41.5 -7t34.5 -18t25.5 -26t14.5 -31h2v68h80v-502zM221 478q-29 0 -48 -15t-30 -42t-15.5 -66t-4.5 -87q0 -33 3.5 -67.5t13.5 -63t29 -47t51 -18.5q34 0 55.5 15t33.5 41.5t16 62.5t4 77q0 39 -4 76.5
t-16 67.5t-33 48t-55 18z" />
    <glyph glyph-name="h" unicode="h" 
d="M55 714h84v-239h2q8 16 22.5 30t32 24t37 15.5t37.5 5.5q52 0 80 -17.5t41 -43.5t15 -55.5t2 -53.5v-380h-84v370q0 15 -1.5 34t-9.5 35.5t-24 27.5t-44 11q-17 0 -35.5 -6t-34.5 -19t-26 -33.5t-10 -49.5v-370h-84v714z" />
    <glyph glyph-name="i" unicode="i" horiz-adv-x="204" 
d="M60 714h84v-96h-84v96zM60 536h84v-536h-84v536z" />
    <glyph glyph-name="j" unicode="j" horiz-adv-x="204" 
d="M144 618h-84v96h84v-96zM144 -52q0 -66 -29.5 -99t-98.5 -33q-10 0 -19.5 1l-19.5 2v72l15.5 -2t15.5 -1q19 0 30 7t15.5 19t5.5 28.5t1 35.5v558h84v-588z" />
    <glyph glyph-name="k" unicode="k" horiz-adv-x="444" 
d="M455 0h-98l-149 265l-69 -84v-181h-84v714h84v-425h2l188 247h98l-163 -202z" />
    <glyph glyph-name="l" unicode="l" horiz-adv-x="204" 
d="M60 714h84v-714h-84v714z" />
    <glyph glyph-name="m" unicode="m" horiz-adv-x="722" 
d="M63 536h80v-63h2q17 37 54 57t76 20q48 0 75.5 -19.5t40.5 -65.5q18 35 51.5 60t75.5 25q53 0 81.5 -17.5t42 -43.5t15.5 -55.5t2 -53.5v-380h-84v370q0 15 -1.5 34t-8.5 35.5t-21.5 27.5t-40.5 11q-15 0 -32.5 -5t-32.5 -17.5t-25 -33.5t-10 -52v-370h-84v370
q0 15 -1.5 34t-8.5 35.5t-21.5 27.5t-40.5 11q-15 0 -32.5 -5t-32.5 -17.5t-25 -33.5t-10 -52v-370h-84v536z" />
    <glyph glyph-name="n" unicode="n" 
d="M55 536h80v-63h2q17 37 54 57t76 20q53 0 81.5 -17.5t42 -43.5t15.5 -55.5t2 -53.5v-380h-84v370q0 15 -1.5 34t-9.5 35.5t-24 27.5t-44 11q-17 0 -35.5 -6t-34.5 -19t-26 -33.5t-10 -49.5v-370h-84v536z" />
    <glyph glyph-name="o" unicode="o" horiz-adv-x="444" 
d="M29 268q0 57 8.5 108t30 89.5t59 61.5t95.5 23t95.5 -23t59 -61.5t30 -89.5t8.5 -108t-8.5 -108t-30.5 -89.5t-59 -61.5t-95 -23t-95.5 23t-59 61.5t-30 89.5t-8.5 108zM220 52q33 0 54 17.5t33 47t16 68.5t4 83q0 43 -4 82.5t-15.5 69t-32.5 47t-55 17.5
q-32 0 -52 -17.5t-31.5 -47t-15.5 -69t-4 -82.5q0 -44 4 -83t15 -68.5t31.5 -47t52.5 -17.5z" />
    <glyph glyph-name="p" unicode="p" 
d="M55 536h80v-66h2q4 15 14.5 29.5t26 25.5t34.5 18t41 7q48 0 81 -20t54 -56t30.5 -86t9.5 -110q0 -46 -8 -97t-27.5 -94.5t-53.5 -72t-86 -28.5q-36 0 -67 20t-45 55h-2v-237h-84v712zM134 268q0 -39 4 -76.5t16 -67.5t33 -48t55 -18q29 0 48 15t30 43t15.5 69t4.5 93
q0 44 -4.5 81t-15.5 63.5t-30 41t-48 14.5q-35 0 -56 -15.5t-32.5 -43.5t-15.5 -66.5t-4 -84.5z" />
    <glyph glyph-name="q" unicode="q" 
d="M329 268q0 46 -4 84.5t-15.5 66.5t-33 43.5t-55.5 15.5q-29 0 -48 -14.5t-30 -41t-15.5 -63.5t-4.5 -81q0 -52 4.5 -92.5t15.5 -69t30 -43.5t48 -15q34 0 55 18t33 48t16 67.5t4 76.5zM324 61h-2q-14 -35 -45 -55t-67 -20q-52 0 -86 25t-53.5 66t-27.5 93.5t-8 107.5
q0 60 9.5 110t30.5 86t54 56t81 20q22 0 41 -7t34.5 -18t26 -25.5t14.5 -29.5h2v66h80v-712h-84v237z" />
    <glyph glyph-name="r" unicode="r" horiz-adv-x="296" 
d="M55 536h84v-80h2q9 19 19.5 36t24.5 30t31.5 20.5t40.5 7.5q25 0 37 -6v-82l-15.5 2.5t-29.5 1.5q-16 0 -35 -7.5t-35.5 -23t-28 -39.5t-11.5 -57v-339h-84v536z" />
    <glyph glyph-name="s" unicode="s" horiz-adv-x="407" 
d="M285 379q0 51 -16.5 78t-62.5 27q-10 0 -25 -2.5t-28.5 -10.5t-23.5 -24.5t-10 -44.5q0 -24 11.5 -39t30 -25.5t42 -17.5l48.5 -15q24 -8 47.5 -17.5t42 -26t30 -42t11.5 -65.5q0 -42 -13 -73.5t-36 -52.5t-55 -31.5t-69 -10.5q-68 0 -105.5 22t-55 52.5t-20.5 62.5
t-3 53h84q0 -24 4 -46.5t15 -40t30.5 -27.5t50.5 -10q10 0 25 3t29.5 13t24.5 27t10 46q0 27 -11.5 44.5t-30 29t-42 19.5l-47.5 16t-48 17.5t-42.5 25.5t-30 42t-11.5 67q0 37 13.5 65t37 46.5t54.5 27.5t66 9q58 0 91 -18t49 -44t19.5 -55.5t3.5 -53.5h-84z" />
    <glyph glyph-name="t" unicode="t" horiz-adv-x="259" 
d="M80 692h84v-156h93v-66h-93v-344q0 -32 11 -46t44 -14q14 0 22 1t15 2v-69q-8 -2 -25 -4t-43 -2q-33 0 -54 6.5t-33 20t-16.5 33.5t-4.5 46v370h-78v66h78v156z" />
    <glyph glyph-name="u" unicode="u" 
d="M408 0h-80v63h-2q-17 -37 -54 -57t-76 -20q-53 0 -81.5 17.5t-42 43.5t-15.5 55.5t-2 53.5v380h84v-370q0 -15 1.5 -34t9.5 -35.5t23.5 -27.5t44.5 -11q17 0 35.5 6t34.5 19t26 33.5t10 49.5v370h84v-536z" />
    <glyph glyph-name="v" unicode="v" horiz-adv-x="406" 
d="M10 536h92l100 -430h2l100 430h92l-145 -536h-96z" />
    <glyph glyph-name="w" unicode="w" horiz-adv-x="648" 
d="M10 536h88l86 -438h2l91 438h99l89 -438h2l83 438h88l-127 -536h-92l-94 438h-2l-90 -438h-98z" />
    <glyph glyph-name="x" unicode="x" horiz-adv-x="406" 
d="M16 536h92l97 -191l98 191h92l-140 -257l145 -279h-92l-107 212l-103 -212h-92l147 279z" />
    <glyph glyph-name="y" unicode="y" horiz-adv-x="406" 
d="M10 536h92l106 -430h2l94 430h92l-155 -572q-8 -28 -17 -53t-24.5 -44.5t-39.5 -31t-62 -11.5q-25 0 -37.5 1t-23.5 2v66q18 -3 49 -3q29 0 43.5 15t22.5 37l16 47z" />
    <glyph glyph-name="z" unicode="z" horiz-adv-x="389" 
d="M39 536h323v-70l-240 -394h238v-72h-333v66l243 398h-231v72z" />
    <glyph glyph-name="braceleft" unicode="{" horiz-adv-x="259" 
d="M2 295q33 0 54.5 28.5t21.5 82.5v178q0 37 9 62t24 40t34.5 21.5t40.5 6.5h71v-66h-51q-18 0 -28.5 -7.5t-15 -19.5t-5.5 -26.5t-1 -28.5v-172q0 -36 -10.5 -60.5t-25 -39t-29.5 -21t-23 -7.5v-2q8 -1 23 -7.5t29.5 -21t25 -39t10.5 -60.5v-172q0 -14 1 -28.5t5.5 -26.5
t15 -19.5t28.5 -7.5h51v-66h-71q-21 0 -40.5 6.5t-34.5 21.5t-24 40t-9 62v178q0 54 -21.5 82.5t-54.5 28.5v60z" />
    <glyph glyph-name="bar" unicode="|" horiz-adv-x="222" 
d="M78 728h66v-742h-66v742z" />
    <glyph glyph-name="braceright" unicode="}" horiz-adv-x="259" 
d="M257 235q-33 0 -54.5 -28.5t-21.5 -82.5v-178q0 -37 -9 -62t-24 -40t-34.5 -21.5t-40.5 -6.5h-71v66h51q18 0 28.5 7.5t15 19.5t5.5 26.5t1 28.5v172q0 36 10.5 60.5t25 39t29.5 21t23 7.5v2q-8 1 -23 7.5t-29.5 21t-25 39t-10.5 60.5v172q0 14 -1 28.5t-5.5 26.5
t-15 19.5t-28.5 7.5h-51v66h71q21 0 40.5 -6.5t34.5 -21.5t24 -40t9 -62v-178q0 -54 21.5 -82.5t54.5 -28.5v-60z" />
    <glyph glyph-name="asciitilde" unicode="~" horiz-adv-x="600" 
d="M56 231q11 16 24.5 32.5t30 30t37 22t44.5 8.5q13 0 24.5 -0.5t23 -3.5t25 -9t31.5 -16l52 -30.5t55 -16.5q17 0 32 7.5t28 19t22.5 24l16.5 22.5l42 -45q-11 -16 -24.5 -33t-30 -30.5t-36.5 -22t-45 -8.5q-14 0 -25 0.5t-22.5 3.5t-25 9t-31.5 16l-52 30.5t-55 16.5
q-17 0 -32 -8t-28 -19t-22.5 -23.5l-16.5 -22.5z" />
    <glyph glyph-name="exclamdown" unicode="&#xa1;" horiz-adv-x="258" 
d="M175 442h-92v96h92v-96zM175 -176h-92l16 528h60z" />
    <glyph glyph-name="cent" unicode="&#xa2;" horiz-adv-x="480" 
d="M227 -14q-90 5 -129 72.5t-39 202.5q0 48 6 97t24 90t51 69t87 33v70h42v-70q48 -3 78 -22.5t46.5 -46t22 -56t5.5 -52.5h-84q0 18 -3.5 36.5t-11.5 34t-21 26.5t-32 14v-432q21 5 34 18.5t20.5 32.5t10.5 40.5t3 42.5h84q0 -31 -7.5 -64.5t-25.5 -62t-47 -49t-72 -24.5
v-85h-42v85zM227 484q-16 -4 -30.5 -16t-25.5 -37t-17.5 -66t-6.5 -103q0 -26 1.5 -59t9 -64.5t23.5 -55.5t46 -31v432z" />
    <glyph glyph-name="sterling" unicode="&#xa3;" horiz-adv-x="480" 
d="M363 505q0 28 -6 52.5t-19.5 43.5t-35.5 30t-53 11q-32 0 -54 -10t-35 -25.5t-18.5 -34t-5.5 -35.5t5 -36t13 -39t18 -40.5l20 -39.5h164v-60h-142q17 -31 17 -68q0 -30 -11.5 -56t-29.5 -48.5t-41 -43l-45 -39.5l2 -2q20 10 42 19t43 9q20 0 33.5 -4.5l27.5 -9.5
q14 -6 29 -10.5t36 -4.5q12 0 22.5 1.5t22.5 6t26.5 12t35.5 19.5l37 -67q-31 -22 -65.5 -36t-72.5 -14q-25 0 -47 6.5t-42 14t-40 14t-41 6.5q-24 0 -49 -11l-47 -22l-38 65l44 37.5t40 42t29 48.5t11 58q0 21 -5 41t-16 36h-95v60h70l-16 31q-14 28 -23.5 57t-9.5 58
q0 43 15.5 76.5t43 56.5t64 35t78.5 12q44 0 80.5 -12t62.5 -37t40.5 -63.5t14.5 -90.5h-84z" />
    <glyph glyph-name="fraction" unicode="&#x2044;" horiz-adv-x="167" 
d="M271 725h60l-435 -756h-60z" />
    <glyph glyph-name="yen" unicode="&#xa5;" horiz-adv-x="480" 
d="M200 153h-147v60h147v60l-10 22h-137v60h110l-154 339h97l136 -324l141 324h88l-150 -339h110v-60h-137l-10 -22v-60h147v-60h-147v-153h-84v153z" />
    <glyph glyph-name="florin" unicode="&#x192;" horiz-adv-x="480" 
d="M-3 -106q6 -2 19.5 -3t29.5 -1q17 0 29.5 4t21.5 14.5t16 28t12 43.5l79 400h-104l11 60h104l33 156q14 67 56.5 92.5t109.5 25.5q31 0 48 -4l-14 -66q-5 2 -14.5 3t-20.5 1q-28 0 -44.5 -8.5t-26.5 -25t-16 -41t-12 -55.5l-15 -78h109l-11 -60h-109l-80 -411
q-14 -72 -53.5 -108.5t-114.5 -36.5q-15 0 -29 1t-28 3z" />
    <glyph glyph-name="section" unicode="&#xa7;" horiz-adv-x="482" 
d="M250 203l60 -41q7 4 17 12t19 19.5t15.5 27.5t6.5 36q0 34 -23.5 59t-53.5 43l-110 68l-22 -17.5t-22 -20.5t-16.5 -25.5t-6.5 -32.5q0 -29 22 -49.5t48 -36.5zM325 578q0 42 -26 63t-62 21q-22 0 -38 -7t-26.5 -18t-15.5 -24.5t-5 -25.5q0 -17 7 -30.5t18.5 -24.5
t25.5 -21t29 -19l100 -60q24 -15 46 -30.5t38.5 -34.5t26 -42t9.5 -53q0 -49 -26.5 -85.5t-62.5 -61.5q31 -20 44.5 -54t13.5 -70q0 -38 -14.5 -67t-38.5 -48.5t-55.5 -29.5t-65.5 -10q-56 0 -91.5 18t-56 44t-28 56.5t-7.5 55.5h84q0 -46 24 -77t75 -31q27 0 44 9.5
t26.5 23t12.5 28t3 24.5q0 18 -7 33t-19 28t-27 24.5t-30 21.5l-113 70q-21 13 -40 28.5t-34 33.5t-24 39t-9 45q0 27 7.5 47.5t20.5 37t31 30t39 27.5q-29 19 -46.5 52t-17.5 68q0 36 15 63.5t39 46t55 27.5t64 9q41 0 69.5 -8.5t48 -21.5t30.5 -30t16.5 -33.5t8 -31.5
t3.5 -25h-88z" />
    <glyph glyph-name="currency" unicode="&#xa4;" horiz-adv-x="480" 
d="M65 214q-21 28 -33 61.5t-12 71.5t12 71t33 61l-47 47l43 43l47 -47q57 45 132 45q38 0 71.5 -12t60.5 -33l47 47l43 -43l-47 -47q45 -57 45 -132q0 -38 -12 -71.5t-34 -60.5l48 -48l-42 -42l-48 48q-27 -22 -60.5 -34t-71.5 -12t-71.5 12t-61.5 33l-47 -47l-42 42z
M92 347q0 -33 11.5 -61t31.5 -48.5t47 -32.5t58 -12t58 12t47 32.5t31.5 48.5t11.5 61t-11.5 61t-31.5 48.5t-47 32.5t-58 12t-58 -12t-47 -32.5t-31.5 -48.5t-11.5 -61z" />
    <glyph glyph-name="quotesingle" unicode="'" horiz-adv-x="240" 
d="M87 714h66v-254h-66v254z" />
    <glyph glyph-name="quotedblleft" unicode="&#x201c;" horiz-adv-x="407" 
d="M171 460h-92v87q0 28 2.5 54.5t11.5 48.5t27.5 38.5t50.5 25.5v-47q-26 -13 -35 -30t-9 -47v-24h44v-106zM328 460h-92v87q0 28 2.5 54.5t11.5 48.5t27.5 38.5t50.5 25.5v-47q-26 -13 -35 -30t-9 -47v-24h44v-106z" />
    <glyph glyph-name="guillemotleft" unicode="&#xab;" horiz-adv-x="389" 
d="M49 323l142 143v-88l-94 -94l94 -94v-88l-142 143v78zM198 323l142 143v-88l-94 -94l94 -94v-88l-142 143v78z" />
    <glyph glyph-name="guilsinglleft" unicode="&#x2039;" horiz-adv-x="240" 
d="M49 323l142 143v-88l-94 -94l94 -94v-88l-142 143v78z" />
    <glyph glyph-name="guilsinglright" unicode="&#x203a;" horiz-adv-x="240" 
d="M191 245l-142 -143v88l94 94l-94 94v88l142 -143v-78z" />
    <glyph glyph-name="fi" unicode="&#xfb01;" 
d="M319 714h84v-96h-84v96zM319 536h84v-536h-84v536zM80 470h-78v66h78v63q0 61 27.5 92t88.5 31h61v-72h-39q-27 0 -40.5 -11.5t-13.5 -39.5v-63h92v-66h-92v-470h-84v470z" />
    <glyph glyph-name="fl" unicode="&#xfb02;" 
d="M319 714h84v-714h-84v714zM80 470h-78v66h78v63q0 61 27.5 92t88.5 31h61v-72h-39q-27 0 -40.5 -11.5t-13.5 -39.5v-63h92v-66h-92v-470h-84v470z" />
    <glyph glyph-name="endash" unicode="&#x2013;" horiz-adv-x="500" 
d="M0 320h500v-72h-500v72z" />
    <glyph glyph-name="dagger" unicode="&#x2020;" horiz-adv-x="482" 
d="M199 714h84v-206h172v-72h-172v-576h-84v576h-172v72h172v206z" />
    <glyph glyph-name="daggerdbl" unicode="&#x2021;" horiz-adv-x="482" 
d="M199 714h84v-193h172v-72h-172v-317h172v-72h-172v-200h-84v200h-172v72h172v317h-172v72h172v193z" />
    <glyph glyph-name="periodcentered" unicode="&#xb7;" horiz-adv-x="240" 
d="M64 327q0 23 16.5 39.5t39.5 16.5t39.5 -16.5t16.5 -39.5t-16.5 -39.5t-39.5 -16.5t-39.5 16.5t-16.5 39.5z" />
    <glyph glyph-name="paragraph" unicode="&#xb6;" horiz-adv-x="556" 
d="M411 660h-100v-800h-66v462q-46 0 -84.5 14.5t-66 39.5t-43 59t-15.5 73q0 49 17 87t48.5 64.5t74.5 40.5t96 14h205v-854h-66v800z" />
    <glyph glyph-name="bullet" unicode="&#x2022;" horiz-adv-x="500" 
d="M72 357q0 37 14 69.5t38 56.5t56.5 38t69.5 14t69.5 -14t56.5 -38t38 -56.5t14 -69.5t-14 -69.5t-38 -56.5t-56.5 -38t-69.5 -14t-69.5 14t-56.5 38t-38 56.5t-14 69.5z" />
    <glyph glyph-name="quotesinglbase" unicode="&#x201a;" horiz-adv-x="240" 
d="M74 106h92v-87q0 -29 -2.5 -55t-11.5 -48t-27.5 -38.5t-50.5 -25.5v47q26 13 35 30t9 47v24h-44v106z" />
    <glyph glyph-name="quotedblbase" unicode="&#x201e;" horiz-adv-x="407" 
d="M171 19q0 -29 -2.5 -55t-11.5 -48t-27.5 -38.5t-50.5 -25.5v47q26 13 35 30t9 47v24h-44v106h92v-87zM328 19q0 -29 -2.5 -55t-11.5 -48t-27.5 -38.5t-50.5 -25.5v47q26 13 35 30t9 47v24h-44v106h92v-87z" />
    <glyph glyph-name="quotedblright" unicode="&#x201d;" horiz-adv-x="407" 
d="M171 627q0 -29 -2.5 -55t-11.5 -48t-27.5 -38.5t-50.5 -25.5v47q26 13 35 30t9 47v24h-44v106h92v-87zM328 627q0 -29 -2.5 -55t-11.5 -48t-27.5 -38.5t-50.5 -25.5v47q26 13 35 30t9 47v24h-44v106h92v-87z" />
    <glyph glyph-name="guillemotright" unicode="&#xbb;" horiz-adv-x="389" 
d="M191 245l-142 -143v88l94 94l-94 94v88l142 -143v-78zM340 245l-142 -143v88l94 94l-94 94v88l142 -143v-78z" />
    <glyph glyph-name="ellipsis" unicode="&#x2026;" horiz-adv-x="1000" 
d="M787 106h92v-106h-92v106zM454 106h92v-106h-92v106zM121 106h92v-106h-92v106z" />
    <glyph glyph-name="perthousand" unicode="&#x2030;" horiz-adv-x="1037" 
d="M551 -14q-45 0 -71 16t-39.5 42.5t-17 61t-3.5 72.5q0 37 3.5 72t17 61.5t39.5 42.5t71 16t71 -16t39.5 -42.5t17 -61.5t3.5 -72q0 -38 -3.5 -72.5t-17 -61t-39.5 -42.5t-71 -16zM551 40q21 0 33 10t17.5 28t7 43.5t1.5 56.5t-1.5 56.5t-7 43.5t-17.5 28t-33 10t-33 -10
t-17.5 -28t-7 -43.5t-1.5 -56.5t1.5 -56.5t7 -43.5t17.5 -28t33 -10zM177 324q-45 0 -71 16t-39.5 42.5t-17 61t-3.5 72.5q0 37 3.5 72t17 61.5t39.5 42.5t71 16t71 -16t39.5 -42.5t17 -61.5t3.5 -72q0 -38 -3.5 -72.5t-17 -61t-39.5 -42.5t-71 -16zM860 -14q-45 0 -71 16
t-39.5 42.5t-17 61t-3.5 72.5q0 37 3.5 72t17 61.5t39.5 42.5t71 16t71 -16t39.5 -42.5t17 -61.5t3.5 -72q0 -38 -3.5 -72.5t-17 -61t-39.5 -42.5t-71 -16zM177 378q21 0 33 10t17.5 28t7 43.5t1.5 56.5t-1.5 56.5t-7 43.5t-17.5 28t-33 10t-33 -10t-17.5 -28t-7 -43.5
t-1.5 -56.5t1.5 -56.5t7 -43.5t17.5 -28t33 -10zM479 708h70l-310 -722h-70zM860 40q21 0 33 10t17.5 28t7 43.5t1.5 56.5t-1.5 56.5t-7 43.5t-17.5 28t-33 10t-33 -10t-17.5 -28t-7 -43.5t-1.5 -56.5t1.5 -56.5t7 -43.5t17.5 -28t33 -10z" />
    <glyph glyph-name="questiondown" unicode="&#xbf;" horiz-adv-x="444" 
d="M279 442h-92v96h92v-96zM409 34q0 -44 -11 -83.5t-33.5 -69.5t-58 -47.5t-83.5 -17.5q-45 0 -80 14.5t-59 39.5t-36.5 59.5t-12.5 74.5q0 38 13 75t37 66q4 4 15.5 17l24.5 27t24 27t14 17q19 24 25.5 50.5t6.5 49.5v19h78q0 -30 -2.5 -63t-16.5 -60q-9 -16 -22.5 -34
t-28 -35l-28 -32.5l-22.5 -26.5q-17 -23 -23.5 -45.5t-6.5 -56.5q0 -22 6 -42t18 -35.5t30.5 -24.5t42.5 -9q36 0 57 16t31.5 38.5t13.5 48t3 43.5h84z" />
    <glyph glyph-name="grave" unicode="`" horiz-adv-x="204" 
d="M82 751l70 -142h-60l-108 142h98z" />
    <glyph glyph-name="acute" unicode="&#xb4;" horiz-adv-x="204" 
d="M122 751h98l-108 -142h-60z" />
    <glyph glyph-name="circumflex" unicode="&#x2c6;" horiz-adv-x="204" 
d="M64 751h77l100 -142h-78l-61 88l-61 -88h-78z" />
    <glyph glyph-name="tilde" unicode="&#x2dc;" horiz-adv-x="204" 
d="M249 739q0 -19 -5.5 -38.5t-16 -35.5t-27 -26.5t-37.5 -10.5q-16 0 -33 6t-32.5 13l-28.5 13t-21 6q-20 0 -28.5 -15.5t-10.5 -29.5h-54q0 22 7 42t19.5 35.5t29.5 24.5t37 9q14 0 29.5 -5.5t30.5 -13.5l28.5 -13t23.5 -6q19 0 25.5 15.5t9.5 29.5h54z" />
    <glyph glyph-name="macron" unicode="&#xaf;" horiz-adv-x="204" 
d="M-30 707h264v-54h-264v54z" />
    <glyph glyph-name="breve" unicode="&#x2d8;" horiz-adv-x="204" 
d="M25 744q0 -14 7 -26t18 -21t24.5 -14.5t27.5 -5.5q13 0 27 5.5t25 14.5t18 21t7 26h48q0 -15 -5.5 -37t-19.5 -42t-38.5 -34t-61.5 -14q-38 0 -62 14t-38 34t-19.5 42t-5.5 37h48z" />
    <glyph glyph-name="dotaccent" unicode="&#x2d9;" horiz-adv-x="204" 
d="M63 731h78v-101h-78v101z" />
    <glyph glyph-name="dieresis" unicode="&#xa8;" horiz-adv-x="204" 
d="M144 731h78v-101h-78v101zM-18 731h78v-101h-78v101z" />
    <glyph glyph-name="ring" unicode="&#x2da;" horiz-adv-x="204" 
d="M45 690q0 -23 17 -40t40 -17t40 17t17 40t-17 40t-40 17t-40 -17t-17 -40zM3 690q0 42 28.5 70.5t70.5 28.5t70.5 -28.5t28.5 -70.5t-28.5 -70.5t-70.5 -28.5t-70.5 28.5t-28.5 70.5z" />
    <glyph glyph-name="cedilla" unicode="&#xb8;" horiz-adv-x="204" 
d="M14 -156q1 0 8.5 -2t17.5 -4l20.5 -4t17.5 -2q31 0 43 12t12 27q0 17 -14.5 27t-32.5 10q-13 0 -23.5 -2.5t-16.5 -4.5l-15 18l59 81h42l-39 -54l2 -2q8 2 14 3t16 1q13 0 27 -3.5t26 -12t19.5 -22.5t7.5 -36q0 -18 -9 -33t-23.5 -26.5t-34 -18t-40.5 -6.5q-28 0 -55 6
t-44 14z" />
    <glyph glyph-name="hungarumlaut" unicode="&#x2dd;" horiz-adv-x="204" 
d="M184 751h98l-108 -142h-60zM20 751h98l-108 -142h-60z" />
    <glyph glyph-name="ogonek" unicode="&#x2db;" horiz-adv-x="204" 
d="M180 0q-33 -24 -53 -42.5t-31.5 -33t-15.5 -26.5t-4 -23q0 -38 40 -38q20 0 34.5 4t31.5 12l18 -35q-25 -15 -52.5 -21.5t-49.5 -6.5q-49 0 -71.5 21t-22.5 57q0 73 123 132h53z" />
    <glyph glyph-name="caron" unicode="&#x2c7;" horiz-adv-x="204" 
d="M140 609h-77l-100 142h78l61 -88l61 88h78z" />
    <glyph glyph-name="emdash" unicode="&#x2014;" horiz-adv-x="1000" 
d="M0 320h1000v-72h-1000v72z" />
    <glyph glyph-name="AE" unicode="&#xc6;" horiz-adv-x="722" 
d="M268 714h418v-78h-266v-224h250v-78h-250v-256h278v-78h-366v196h-175l-73 -196h-92zM182 268h150v374h-10z" />
    <glyph glyph-name="ordfeminine" unicode="&#xaa;" horiz-adv-x="289" 
d="M191 547q-8 -8 -20 -12.5t-25.5 -8.5l-26 -7.5t-21.5 -9.5q-11 -8 -17.5 -16.5t-6.5 -28.5t10 -34.5t36 -14.5q13 0 26 5t23 12.5t16 17.5t6 20v77zM251 436q0 -10 2 -18.5t15 -8.5q5 0 8 1t5 2v-42q-3 -1 -13 -2t-25 -1q-20 0 -34.5 10t-15.5 36h-2q-12 -22 -35.5 -34
t-52.5 -12q-48 0 -71.5 25.5t-23.5 67.5q0 36 17 58.5t55 33.5l73 20q28 8 33 18t5 27q0 23 -14 33t-40 10q-22 0 -34 -7.5t-17.5 -17.5t-6.5 -19.5t-1 -13.5v-4h-60q0 60 28.5 85t98.5 25q40 0 61.5 -10t31.5 -25t11.5 -31.5t1.5 -29.5v-176z" />
    <glyph glyph-name="Lslash" unicode="&#x141;" horiz-adv-x="444" 
d="M-8 269l66 47v398h88v-335l194 139v-72l-194 -139v-229h290v-78h-378v244l-66 -47v72z" />
    <glyph glyph-name="Oslash" unicode="&#xd8;" horiz-adv-x="556" 
d="M121 56q-23 27 -37 61.5t-22 73.5t-11 81.5t-3 84.5q0 67 8 133.5t33 119.5t70 85.5t119 32.5q68 0 111 -28l24 59l54 -22l-32 -77q22 -27 36 -62t22.5 -74t11.5 -81.5t3 -85.5q0 -68 -8 -134t-33 -119t-70 -85.5t-119 -32.5q-66 0 -110 28l-26 -62l-54 24zM199 88
q30 -30 79 -30q46 0 73 23.5t41.5 64t19 95t4.5 116.5q0 60 -4 112.5t-17 92.5zM358 626q-30 30 -80 30q-46 0 -73 -23.5t-41.5 -64t-19 -95t-4.5 -116.5q0 -60 4 -111t17 -93z" />
    <glyph glyph-name="OE" unicode="&#x152;" horiz-adv-x="796" 
d="M412 463q0 38 -2.5 73t-15.5 61.5t-40 42.5t-76 16q-47 0 -75 -23.5t-43 -64t-19.5 -95t-4.5 -116.5t4.5 -116.5t19.5 -95t43 -64t75 -23.5q43 0 69 14t40.5 38t19.5 55.5t5 66.5v231zM500 78h272v-78h-358v63h-2q-14 -36 -51.5 -56.5t-82.5 -20.5q-74 0 -119 31
t-70 82.5t-33 118.5t-8 139q0 67 8 133.5t33 119.5t70 85.5t119 32.5q19 0 40 -4.5t39.5 -13t34 -21.5t24.5 -30h2v55h342v-78h-260v-224h244v-78h-244v-256z" />
    <glyph glyph-name="ordmasculine" unicode="&#xba;" horiz-adv-x="289" 
d="M143 415q19 0 31.5 11t20 28.5t10 39.5t2.5 45q0 22 -2.5 43.5t-9.5 38.5t-19.5 28t-32.5 11q-18 0 -30 -11t-19 -28t-9.5 -38.5t-2.5 -43.5q0 -23 2.5 -45t9 -39.5t18.5 -28.5t31 -11zM143 708q39 0 64.5 -14t40 -37.5t20 -54t5.5 -63.5q0 -34 -5.5 -65t-20.5 -55
t-40 -38t-64 -14q-38 0 -63 14t-39 38t-19.5 55t-5.5 65q0 33 5.5 63.5t19.5 54t39 37.5t63 14z" />
    <glyph glyph-name="ae" unicode="&#xe6;" horiz-adv-x="667" 
d="M290 268v11h-2q-3 -6 -21 -13t-40 -14l-42 -13t-27 -9q-21 -8 -32.5 -27.5t-11.5 -57.5q0 -37 17.5 -65t57.5 -28q36 0 56.5 15.5t30 36t12 40.5t2.5 30v94zM637 176q0 -21 -7.5 -53.5t-26.5 -63t-51.5 -52t-83.5 -21.5q-42 0 -69.5 12.5t-43.5 29t-23 32.5t-8 24h-2
q-20 -43 -54.5 -70.5t-94.5 -27.5q-67 0 -107 42t-40 114q0 57 26.5 95t75.5 53l125 38q24 8 30.5 25.5t6.5 51.5q0 38 -19 58.5t-61 20.5q-32 0 -49.5 -13.5t-25.5 -31.5t-9.5 -35.5t-1.5 -24.5v-5h-84q0 93 42.5 134.5t133.5 41.5q54 0 86.5 -20t41.5 -54h2
q7 17 20.5 30.5t30.5 23.5t36.5 15t38.5 5q58 0 91.5 -24t50.5 -61.5t22 -83.5t5 -89v-34h-273q0 -31 1.5 -67t10.5 -67t28 -51.5t54 -20.5q30 0 48 13.5t27.5 33t12.5 41t3 36.5h84zM553 324v29q0 22 -4 45.5t-14 42.5t-27.5 31t-43.5 12q-31 0 -49.5 -17.5t-28 -40.5
t-12.5 -46.5t-3 -35.5v-20h182z" />
    <glyph glyph-name="dotlessi" unicode="&#x131;" horiz-adv-x="204" 
d="M60 536h84v-536h-84v536z" />
    <glyph glyph-name="lslash" unicode="&#x142;" horiz-adv-x="204" 
d="M60 276l-60 -64v78l60 64v360h84v-271l60 63v-78l-60 -63v-365h-84v276z" />
    <glyph glyph-name="oslash" unicode="&#xf8;" horiz-adv-x="444" 
d="M96 36q-38 38 -52.5 97.5t-14.5 134.5q0 57 8.5 108t30 89.5t59 61.5t95.5 23q49 0 84 -18l26 61l48 -21l-30 -71q38 -42 51.5 -101t13.5 -132q0 -57 -8.5 -108t-30.5 -89.5t-59 -61.5t-95 -23q-50 0 -84 18l-27 -63l-47 19zM277 463q-24 21 -57 21q-32 0 -52 -17.5
t-31.5 -47t-15.5 -69t-4 -82.5q0 -39 3.5 -75.5t13.5 -66.5zM167 71q20 -19 53 -19t54 17.5t33 47t16 68.5t4 83q0 38 -3.5 74t-13.5 65z" />
    <glyph glyph-name="oe" unicode="&#x153;" horiz-adv-x="722" 
d="M413 324h182v29q0 22 -4 45.5t-14 42.5t-27.5 31t-43.5 12q-31 0 -49.5 -17.5t-28 -40.5t-12.5 -46.5t-3 -35.5v-20zM332 268q0 41 -4 80t-15.5 69t-32 48.5t-53.5 18.5q-31 0 -50.5 -18.5t-30.5 -48.5t-15 -69t-4 -80t4 -80t15 -69t30.5 -48.5t50.5 -18.5
q33 0 53.5 18.5t32 48.5t15.5 69t4 80zM683 258h-273q0 -31 1.5 -67t10.5 -67t28 -51.5t54 -20.5q30 0 48 13.5t27.5 33t12.5 41t3 36.5h84q0 -21 -7.5 -53.5t-26.5 -63t-51.5 -52t-83.5 -21.5q-42 0 -69.5 13t-43 29.5t-22 31.5t-7.5 18q-19 -43 -56 -67.5t-85 -24.5
q-56 0 -92.5 23.5t-57.5 63t-29.5 90.5t-8.5 105t8.5 105t29.5 90.5t57.5 63t92.5 23.5t89 -22t58 -69q19 42 57 66.5t83 24.5q58 0 91.5 -24t50.5 -61.5t22 -83.5t5 -89v-34z" />
    <glyph glyph-name="germandbls" unicode="&#xdf;" 
d="M48 511q0 46 8 85t28 67t54 43.5t87 15.5q36 0 67 -9.5t54.5 -29.5t37 -51t13.5 -73q0 -24 -6.5 -48t-19.5 -44.5t-33 -35t-47 -19.5v-2q36 0 62.5 -15t44.5 -40.5t27 -59.5t9 -71q0 -40 -10 -80t-32 -72t-55.5 -52t-81.5 -20h-59v72h58q28 0 46 15.5t28 39t14 50t4 47.5
q0 69 -28 109.5t-79 40.5q-8 0 -20 -0.5t-20 -2.5v69h20q38 0 66 26.5t28 78.5q0 19 -4 38.5t-13.5 35.5t-26.5 26.5t-44 10.5q-33 0 -51.5 -11.5t-27.5 -30t-11.5 -42t-2.5 -47.5v-525h-84v511z" />
    <glyph glyph-name="onesuperior" unicode="&#xb9;" horiz-adv-x="312" 
d="M128 593h-96v48q21 0 41 2t35.5 9t25.5 20t11 36h49v-428h-66v313z" />
    <glyph glyph-name="logicalnot" unicode="&#xac;" horiz-adv-x="600" 
d="M487 322h-440v66h506v-282h-66v216z" />
    <glyph glyph-name="mu" unicode="&#xb5;" 
d="M408 0h-80v63h-2q-17 -37 -54 -57t-76 -20q-17 0 -31.5 3t-25.5 11v-176h-84v712h84v-370q0 -15 1.5 -34t9.5 -35.5t23.5 -27.5t44.5 -11q17 0 35.5 6t34.5 19t26 33.5t10 49.5v370h84v-536z" />
    <glyph glyph-name="trademark" unicode="&#x2122;" horiz-adv-x="990" 
d="M848 642h-2l-139 -340h-39l-139 340h-2v-340h-66v412h98l130 -316l127 316h98v-412h-66v340zM185 654h-133v60h329v-60h-130v-352h-66v352z" />
    <glyph glyph-name="Eth" unicode="&#xd0;" horiz-adv-x="556" 
d="M247 72q57 0 90.5 26.5t51 67.5t22.5 91.5t5 98.5q0 52 -4 103t-20.5 91.5t-50.5 66t-94 25.5h-92v-236h134v-66h-134v-268h92zM67 340h-58v66h58v308h191q83 0 132.5 -28t75.5 -76.5t34 -113.5t8 -139q0 -68 -10 -132t-37 -114t-74 -80.5t-120 -30.5h-200v340z" />
    <glyph glyph-name="onehalf" unicode="&#xbd;" horiz-adv-x="721" 
d="M420 0q0 30 8.5 55t22.5 46.5t32 39.5t37 34l37 30q29 23 45.5 45.5t16.5 57.5q0 26 -15 43t-51 17q-21 0 -33.5 -8.5t-19 -20.5t-8 -25t-1.5 -22h-72q0 29 7 54t23.5 43t43 28.5t65.5 10.5q58 0 95.5 -28.5t37.5 -85.5q0 -49 -21 -79.5t-60 -61.5l-62 -50
q-20 -16 -31 -32t-16 -31h180v-60h-261zM30 641q21 0 41 2t35.5 9t25.5 20t11 36h49v-428h-66v313h-96v48zM508 725h60l-434 -756h-60z" />
    <glyph glyph-name="plusminus" unicode="&#xb1;" horiz-adv-x="600" 
d="M47 66h506v-66h-506v66zM47 361h220v145h66v-145h220v-66h-220v-145h-66v145h-220v66z" />
    <glyph glyph-name="Thorn" unicode="&#xde;" horiz-adv-x="481" 
d="M146 234h105q48 0 83 34t35 105q0 60 -29 94.5t-95 34.5h-99v-268zM58 714h88v-140h94q15 0 37.5 -1t47 -6.5t49 -18t44 -35.5t31.5 -58t12 -86q0 -50 -15 -88.5t-42.5 -65t-65.5 -40t-83 -13.5h-109v-162h-88v714z" />
    <glyph glyph-name="onequarter" unicode="&#xbc;" horiz-adv-x="721" 
d="M32 641q21 0 41 2t35.5 9t25.5 20t11 36h49v-428h-66v313h-96v48zM527 725h60l-434 -756h-60zM560 428h72v-275h47v-54h-47v-99h-66v99h-166v60zM566 153v185h-2l-110 -185h112z" />
    <glyph glyph-name="divide" unicode="&#xf7;" horiz-adv-x="600" 
d="M244 42q0 23 16.5 39.5t39.5 16.5t39.5 -16.5t16.5 -39.5t-16.5 -39.5t-39.5 -16.5t-39.5 16.5t-16.5 39.5zM244 464q0 23 16.5 39.5t39.5 16.5t39.5 -16.5t16.5 -39.5t-16.5 -39.5t-39.5 -16.5t-39.5 16.5t-16.5 39.5zM47 286h506v-66h-506v66z" />
    <glyph glyph-name="brokenbar" unicode="&#xa6;" horiz-adv-x="222" 
d="M78 728h66v-294h-66v294zM78 280h66v-294h-66v294z" />
    <glyph glyph-name="degree" unicode="&#xb0;" horiz-adv-x="400" 
d="M105 559q0 -20 7.5 -37t20.5 -30t30 -20.5t37 -7.5q19 0 36.5 7.5t30.5 20.5t20.5 30t7.5 37q0 19 -7.5 36.5t-20.5 30.5t-30.5 20.5t-36.5 7.5q-20 0 -37 -7.5t-30 -20.5t-20.5 -30.5t-7.5 -36.5zM51 559q0 32 11 59.5t31 47.5t47.5 31t59.5 11t59.5 -11t47.5 -31
t31 -47.5t11 -59.5t-11 -59.5t-31 -47.5t-47.5 -31t-59.5 -11t-59.5 11t-47.5 31t-31 47.5t-11 59.5z" />
    <glyph glyph-name="thorn" unicode="&#xfe;" 
d="M55 714h84v-239h2q5 17 16.5 31t27.5 23.5t33.5 15t34.5 5.5q48 0 81 -20t54 -56t30.5 -86t9.5 -110q0 -46 -8 -97t-27.5 -94.5t-53.5 -72t-86 -28.5q-36 0 -67 20t-45 55h-2v-237h-84v890zM134 268q0 -39 4 -76.5t16 -67.5t33 -48t55 -18q29 0 48 15t30 43t15.5 69
t4.5 93q0 44 -4.5 81t-15.5 63.5t-30 41t-48 14.5q-35 0 -56 -15.5t-32.5 -43.5t-15.5 -66.5t-4 -84.5z" />
    <glyph glyph-name="threequarters" unicode="&#xbe;" horiz-adv-x="721" 
d="M120 528h24q36 0 54 20t18 49q0 23 -13.5 40t-41.5 17q-21 0 -33.5 -7.5t-18.5 -18.5t-8 -22.5t-2 -20.5h-72q0 55 31 89t105 34q39 0 63 -10.5t38 -27t19 -36t5 -37.5q0 -32 -21 -58t-63 -34v-2q43 -7 69.5 -30.5t26.5 -68.5q0 -60 -33 -95.5t-103 -35.5q-50 0 -78.5 16
t-43 36t-18.5 39.5t-4 26.5v5h72q0 -12 4 -24t12.5 -22t21.5 -16.5t32 -6.5q10 0 21.5 3.5t21.5 11.5t16.5 22.5t6.5 35.5q0 34 -19 54t-61 20h-28v54zM579 725h60l-434 -756h-60zM582 428h72v-275h47v-54h-47v-99h-66v99h-166v60zM588 153v185h-2l-110 -185h112z" />
    <glyph glyph-name="twosuperior" unicode="&#xb2;" horiz-adv-x="312" 
d="M21 280q0 30 8.5 55t22.5 46.5t32 39.5t37 34l37 30q29 23 45.5 45.5t16.5 57.5q0 26 -15 43t-51 17q-21 0 -33.5 -8.5t-19 -20.5t-8 -25t-1.5 -22h-72q0 29 7 54t23.5 43t43 28.5t65.5 10.5q58 0 95.5 -28.5t37.5 -85.5q0 -49 -21 -79.5t-60 -61.5l-62 -50
q-20 -16 -31 -32t-16 -31h180v-60h-261z" />
    <glyph glyph-name="registered" unicode="&#xae;" horiz-adv-x="800" 
d="M400 46q63 0 119 24.5t97 66.5t65 98.5t24 121.5q0 64 -24 121t-65 99t-97 66.5t-119 24.5t-119 -24.5t-97 -66.5t-65 -99t-24 -121q0 -65 24 -121.5t65 -98.5t97 -66.5t119 -24.5zM29 357q0 77 29 144.5t79.5 118t118 79.5t144.5 29t144.5 -29t118 -79.5t79.5 -118
t29 -144.5t-29 -144.5t-79.5 -118t-118 -79.5t-144.5 -29t-144.5 29t-118 79.5t-79.5 118t-29 144.5zM389 380q22 0 42.5 1.5t36.5 8t25 20.5t9 38q0 21 -8 34t-21.5 19.5t-30.5 8.5t-34 2h-90v-132h71zM252 572h168q72 0 110 -30.5t38 -96.5q0 -58 -33 -86.5t-84 -33.5
l124 -187h-66l-120 182h-71v-182h-66v434z" />
    <glyph glyph-name="minus" unicode="&#x2212;" horiz-adv-x="600" 
d="M47 286h506v-66h-506v66z" />
    <glyph glyph-name="eth" unicode="&#xf0;" horiz-adv-x="444" 
d="M82 637l71 40q-17 17 -36.5 33.5l-40.5 33.5l64 28l37.5 -31l34.5 -30l74 42l38 -42l-70 -40q38 -38 68 -79.5t50.5 -90t31.5 -106t11 -127.5q0 -57 -8.5 -108t-30.5 -89.5t-59 -61.5t-95 -23t-95.5 23t-59 61.5t-30 89.5t-8.5 108q0 54 8.5 103t30 85.5t59 58t95.5 21.5
q14 0 29.5 -4t29.5 -13h2q-20 31 -42 60t-48 57l-73 -41zM220 470q-32 0 -52 -18t-31.5 -47t-15.5 -65t-4 -72q0 -44 4 -83t15 -68.5t31.5 -47t52.5 -17.5q33 0 54 17.5t33 47t16 68.5t4 83q0 36 -4 72t-15.5 65t-32.5 47t-55 18z" />
    <glyph glyph-name="multiply" unicode="&#xd7;" horiz-adv-x="600" 
d="M300 210l-181 -180l-42 42l181 181l-181 181l42 42l181 -180l180 180l43 -42l-181 -181l181 -181l-43 -42z" />
    <glyph glyph-name="threesuperior" unicode="&#xb3;" horiz-adv-x="312" 
d="M116 528h24q36 0 54 20t18 49q0 23 -13.5 40t-41.5 17q-21 0 -33.5 -7.5t-18.5 -18.5t-8 -22.5t-2 -20.5h-72q0 55 31 89t105 34q39 0 63 -10.5t38 -27t19 -36t5 -37.5q0 -32 -21 -58t-63 -34v-2q43 -7 69.5 -30.5t26.5 -68.5q0 -60 -33 -95.5t-103 -35.5q-50 0 -78.5 16
t-43 36t-18.5 39.5t-4 26.5v5h72q0 -12 4 -24t12.5 -22t21.5 -16.5t32 -6.5q10 0 21.5 3.5t21.5 11.5t16.5 22.5t6.5 35.5q0 34 -19 54t-61 20h-28v54z" />
    <glyph glyph-name="copyright" unicode="&#xa9;" horiz-adv-x="800" 
d="M400 46q63 0 119 24.5t97 66.5t65 98.5t24 121.5q0 64 -24 121t-65 99t-97 66.5t-119 24.5t-119 -24.5t-97 -66.5t-65 -99t-24 -121q0 -65 24 -121.5t65 -98.5t97 -66.5t119 -24.5zM29 357q0 77 29 144.5t79.5 118t118 79.5t144.5 29t144.5 -29t118 -79.5t79.5 -118
t29 -144.5t-29 -144.5t-79.5 -118t-118 -79.5t-144.5 -29t-144.5 29t-118 79.5t-79.5 118t-29 144.5zM603 279q-5 -38 -22.5 -67t-44 -48.5t-60 -29.5t-70.5 -10q-51 0 -91.5 17t-69 47.5t-43.5 72.5t-15 93t15 93t43.5 72.5t69 47.5t91.5 17q37 0 70.5 -9.5t60 -29
t44 -48.5t22.5 -68h-60q-8 40 -44 67.5t-93 27.5q-35 0 -63.5 -13.5t-48.5 -36.5t-30.5 -54t-10.5 -66t10.5 -66t30.5 -54t48.5 -36.5t63.5 -13.5q57 0 93 27.5t44 67.5h60z" />
    <glyph glyph-name="Aacute" unicode="&#xc1;" horiz-adv-x="500" 
d="M155 268h192l-91 345h-2zM198 714h118l192 -714h-92l-51 196h-228l-53 -196h-92zM270 915h98l-108 -142h-60z" />
    <glyph glyph-name="Acircumflex" unicode="&#xc2;" horiz-adv-x="500" 
d="M155 268h192l-91 345h-2zM198 714h118l192 -714h-92l-51 196h-228l-53 -196h-92zM219 915h77l100 -142h-78l-61 88l-61 -88h-78z" />
    <glyph glyph-name="Adieresis" unicode="&#xc4;" horiz-adv-x="500" 
d="M155 268h192l-91 345h-2zM198 714h118l192 -714h-92l-51 196h-228l-53 -196h-92zM298 895h78v-101h-78v101zM136 895h78v-101h-78v101z" />
    <glyph glyph-name="Agrave" unicode="&#xc0;" horiz-adv-x="500" 
d="M155 268h192l-91 345h-2zM198 714h118l192 -714h-92l-51 196h-228l-53 -196h-92zM243 915l70 -142h-60l-108 142h98z" />
    <glyph glyph-name="Aring" unicode="&#xc5;" horiz-adv-x="500" 
d="M155 268h192l-91 345h-2zM198 714h118l192 -714h-92l-51 196h-228l-53 -196h-92zM200 844q0 -23 17 -40t40 -17t40 17t17 40t-17 40t-40 17t-40 -17t-17 -40zM158 844q0 42 28.5 70.5t70.5 28.5t70.5 -28.5t28.5 -70.5t-28.5 -70.5t-70.5 -28.5t-70.5 28.5t-28.5 70.5z
" />
    <glyph glyph-name="Atilde" unicode="&#xc3;" horiz-adv-x="500" 
d="M155 268h192l-91 345h-2zM198 714h118l192 -714h-92l-51 196h-228l-53 -196h-92zM405 903q0 -19 -5.5 -38.5t-16 -35.5t-27 -26.5t-37.5 -10.5q-16 0 -33 6t-32.5 13l-28.5 13t-21 6q-20 0 -28.5 -15.5t-10.5 -29.5h-54q0 22 7 42t19.5 35.5t29.5 24.5t37 9
q14 0 29.5 -5.5t30.5 -13.5l28.5 -13t23.5 -6q19 0 25.5 15.5t9.5 29.5h54z" />
    <glyph glyph-name="Ccedilla" unicode="&#xc7;" horiz-adv-x="519" 
d="M176 -156q1 0 8.5 -2t17.5 -4l20.5 -4t17.5 -2q31 0 43 12t12 27q0 17 -14.5 27t-32.5 10q-13 0 -23.5 -2.5t-16.5 -4.5l-15 18l50 69q-53 6 -87 30q-34 25 -55 62t-33 81t-16 94t-4 102q0 67 8 133.5t33 119.5t70 85.5t119 32.5q109 0 158.5 -58t52.5 -164h-92
q-1 30 -7 57.5t-19.5 48t-36 32.5t-56.5 12q-46 0 -73 -23.5t-41.5 -64t-19 -95t-4.5 -116.5t4.5 -116.5t19 -95t41.5 -64t73 -23.5q40 0 64 17t37.5 44t18 60t5.5 66h92q-2 -39 -9.5 -74.5t-21.5 -66.5t-35.5 -56t-52.5 -41q-37 -19 -92 -21l-29 -40l2 -2q8 2 14 3t16 1
q13 0 27 -3.5t26 -12t19.5 -22.5t7.5 -36q0 -18 -9 -33t-23.5 -26.5t-34 -18t-40.5 -6.5q-28 0 -55 6t-44 14z" />
    <glyph glyph-name="Eacute" unicode="&#xc9;" 
d="M58 714h369v-78h-281v-224h265v-78h-265v-256h293v-78h-381v714zM287 915h98l-108 -142h-60z" />
    <glyph glyph-name="Ecircumflex" unicode="&#xca;" 
d="M58 714h369v-78h-281v-224h265v-78h-265v-256h293v-78h-381v714zM206 915h77l100 -142h-78l-61 88l-61 -88h-78z" />
    <glyph glyph-name="Edieresis" unicode="&#xcb;" 
d="M58 714h369v-78h-281v-224h265v-78h-265v-256h293v-78h-381v714zM289 895h78v-101h-78v101zM127 895h78v-101h-78v101z" />
    <glyph glyph-name="Egrave" unicode="&#xc8;" 
d="M58 714h369v-78h-281v-224h265v-78h-265v-256h293v-78h-381v714zM235 915l70 -142h-60l-108 142h98z" />
    <glyph glyph-name="Iacute" unicode="&#xcd;" horiz-adv-x="204" 
d="M58 714h88v-714h-88v714zM129 915h98l-108 -142h-60z" />
    <glyph glyph-name="Icircumflex" unicode="&#xce;" horiz-adv-x="204" 
d="M58 714h88v-714h-88v714zM63 915h77l100 -142h-78l-61 88l-61 -88h-78z" />
    <glyph glyph-name="Idieresis" unicode="&#xcf;" horiz-adv-x="204" 
d="M58 714h88v-714h-88v714zM143 895h78v-101h-78v101zM-19 895h78v-101h-78v101z" />
    <glyph glyph-name="Igrave" unicode="&#xcc;" horiz-adv-x="204" 
d="M58 714h88v-714h-88v714zM75 915l70 -142h-60l-108 142h98z" />
    <glyph glyph-name="Ntilde" unicode="&#xd1;" horiz-adv-x="556" 
d="M58 714h114l236 -596h2v596h88v-714h-121l-229 578h-2v-578h-88v714zM423 903q0 -19 -5.5 -38.5t-16 -35.5t-27 -26.5t-37.5 -10.5q-16 0 -33 6t-32.5 13l-28.5 13t-21 6q-20 0 -28.5 -15.5t-10.5 -29.5h-54q0 22 7 42t19.5 35.5t29.5 24.5t37 9q14 0 29.5 -5.5
t30.5 -13.5l28.5 -13t23.5 -6q19 0 25.5 15.5t9.5 29.5h54z" />
    <glyph glyph-name="Oacute" unicode="&#xd3;" horiz-adv-x="556" 
d="M278 656q-46 0 -73 -23.5t-41.5 -64t-19 -95t-4.5 -116.5t4.5 -116.5t19 -95t41.5 -64t73 -23.5t73 23.5t41.5 64t19 95t4.5 116.5t-4.5 116.5t-19 95t-41.5 64t-73 23.5zM278 728q74 0 119 -32.5t70 -85.5t33 -119.5t8 -133.5q0 -68 -8 -134t-33 -119t-70 -85.5
t-119 -32.5t-119 32.5t-70 85.5t-33 119t-8 134q0 67 8 133.5t33 119.5t70 85.5t119 32.5zM308 915h98l-108 -142h-60z" />
    <glyph glyph-name="Ocircumflex" unicode="&#xd4;" horiz-adv-x="556" 
d="M278 656q-46 0 -73 -23.5t-41.5 -64t-19 -95t-4.5 -116.5t4.5 -116.5t19 -95t41.5 -64t73 -23.5t73 23.5t41.5 64t19 95t4.5 116.5t-4.5 116.5t-19 95t-41.5 64t-73 23.5zM278 728q74 0 119 -32.5t70 -85.5t33 -119.5t8 -133.5q0 -68 -8 -134t-33 -119t-70 -85.5
t-119 -32.5t-119 32.5t-70 85.5t-33 119t-8 134q0 67 8 133.5t33 119.5t70 85.5t119 32.5zM240 915h77l100 -142h-78l-61 88l-61 -88h-78z" />
    <glyph glyph-name="Odieresis" unicode="&#xd6;" horiz-adv-x="556" 
d="M278 656q-46 0 -73 -23.5t-41.5 -64t-19 -95t-4.5 -116.5t4.5 -116.5t19 -95t41.5 -64t73 -23.5t73 23.5t41.5 64t19 95t4.5 116.5t-4.5 116.5t-19 95t-41.5 64t-73 23.5zM278 728q74 0 119 -32.5t70 -85.5t33 -119.5t8 -133.5q0 -68 -8 -134t-33 -119t-70 -85.5
t-119 -32.5t-119 32.5t-70 85.5t-33 119t-8 134q0 67 8 133.5t33 119.5t70 85.5t119 32.5zM321 895h78v-101h-78v101zM159 895h78v-101h-78v101z" />
    <glyph glyph-name="Ograve" unicode="&#xd2;" horiz-adv-x="556" 
d="M278 656q-46 0 -73 -23.5t-41.5 -64t-19 -95t-4.5 -116.5t4.5 -116.5t19 -95t41.5 -64t73 -23.5t73 23.5t41.5 64t19 95t4.5 116.5t-4.5 116.5t-19 95t-41.5 64t-73 23.5zM278 728q74 0 119 -32.5t70 -85.5t33 -119.5t8 -133.5q0 -68 -8 -134t-33 -119t-70 -85.5
t-119 -32.5t-119 32.5t-70 85.5t-33 119t-8 134q0 67 8 133.5t33 119.5t70 85.5t119 32.5zM249 915l70 -142h-60l-108 142h98z" />
    <glyph glyph-name="Otilde" unicode="&#xd5;" horiz-adv-x="556" 
d="M278 656q-46 0 -73 -23.5t-41.5 -64t-19 -95t-4.5 -116.5t4.5 -116.5t19 -95t41.5 -64t73 -23.5t73 23.5t41.5 64t19 95t4.5 116.5t-4.5 116.5t-19 95t-41.5 64t-73 23.5zM278 728q74 0 119 -32.5t70 -85.5t33 -119.5t8 -133.5q0 -68 -8 -134t-33 -119t-70 -85.5
t-119 -32.5t-119 32.5t-70 85.5t-33 119t-8 134q0 67 8 133.5t33 119.5t70 85.5t119 32.5zM423 903q0 -19 -5.5 -38.5t-16 -35.5t-27 -26.5t-37.5 -10.5q-16 0 -33 6t-32.5 13l-28.5 13t-21 6q-20 0 -28.5 -15.5t-10.5 -29.5h-54q0 22 7 42t19.5 35.5t29.5 24.5t37 9
q14 0 29.5 -5.5t30.5 -13.5l28.5 -13t23.5 -6q19 0 25.5 15.5t9.5 29.5h54z" />
    <glyph glyph-name="Scaron" unicode="&#x160;" horiz-adv-x="500" 
d="M361 529q0 28 -5.5 51.5t-18.5 40t-34.5 26t-52.5 9.5q-57 0 -87.5 -29.5t-30.5 -86.5q0 -50 25 -77t62.5 -43t81 -28.5t81 -33.5t62.5 -58t25 -102q0 -62 -20.5 -103t-52.5 -65t-71.5 -34t-77.5 -10q-63 0 -104.5 16t-66 46t-35 74.5t-10.5 101.5h88q0 -30 3 -59.5
t16 -53.5t40 -38.5t75 -14.5q26 0 49 9t39.5 25.5t26 39.5t9.5 52q0 38 -14.5 62t-38 40.5t-54 27l-62 21.5t-62 24.5t-54 35t-38 54.5t-14.5 82q0 25 7 58.5t29.5 64.5t63.5 52.5t109 21.5q103 0 150.5 -49.5t49.5 -149.5h-88zM292 773h-77l-100 142h78l61 -88l61 88h78z
" />
    <glyph glyph-name="Uacute" unicode="&#xda;" horiz-adv-x="519" 
d="M50 714h88v-502q0 -79 27.5 -116.5t93.5 -37.5q70 0 96 39.5t26 114.5v502h88v-502q0 -103 -52.5 -164.5t-157.5 -61.5q-109 0 -159 57t-50 169v502zM293 915h98l-108 -142h-60z" />
    <glyph glyph-name="Ucircumflex" unicode="&#xdb;" horiz-adv-x="519" 
d="M50 714h88v-502q0 -79 27.5 -116.5t93.5 -37.5q70 0 96 39.5t26 114.5v502h88v-502q0 -103 -52.5 -164.5t-157.5 -61.5q-109 0 -159 57t-50 169v502zM223 915h77l100 -142h-78l-61 88l-61 -88h-78z" />
    <glyph glyph-name="Udieresis" unicode="&#xdc;" horiz-adv-x="519" 
d="M50 714h88v-502q0 -79 27.5 -116.5t93.5 -37.5q70 0 96 39.5t26 114.5v502h88v-502q0 -103 -52.5 -164.5t-157.5 -61.5q-109 0 -159 57t-50 169v502zM301 895h78v-101h-78v101zM139 895h78v-101h-78v101z" />
    <glyph glyph-name="Ugrave" unicode="&#xd9;" horiz-adv-x="519" 
d="M50 714h88v-502q0 -79 27.5 -116.5t93.5 -37.5q70 0 96 39.5t26 114.5v502h88v-502q0 -103 -52.5 -164.5t-157.5 -61.5q-109 0 -159 57t-50 169v502zM229 915l70 -142h-60l-108 142h98z" />
    <glyph glyph-name="Yacute" unicode="&#xdd;" horiz-adv-x="462" 
d="M-2 714h97l136 -334l141 334h92l-189 -434v-280h-88v280zM266 915h98l-108 -142h-60z" />
    <glyph glyph-name="Ydieresis" unicode="&#x178;" horiz-adv-x="462" 
d="M-2 714h97l136 -334l141 334h92l-189 -434v-280h-88v280zM272 895h78v-101h-78v101zM110 895h78v-101h-78v101z" />
    <glyph glyph-name="Zcaron" unicode="&#x17d;" 
d="M23 74l321 562h-303v78h395v-81l-321 -555h325v-78h-417v74zM272 773h-77l-100 142h78l61 -88l61 88h78z" />
    <glyph glyph-name="aacute" unicode="&#xe1;" horiz-adv-x="444" 
d="M301 292q-12 -12 -30.5 -20t-39 -14.5l-40 -13t-33.5 -15.5q-20 -13 -30.5 -31.5t-10.5 -53.5q0 -42 16.5 -67t59.5 -25q21 0 40.5 8t34.5 22t24 32.5t9 39.5v138zM42 374q0 91 42 133.5t138 42.5q61 0 94 -16t48.5 -40t18 -50.5t2.5 -47.5v-299q0 -17 3 -30t23 -13
q8 0 12.5 1.5t7.5 3.5v-60q-5 -1 -19 -3t-30 -2q-12 0 -24.5 1t-24 7.5t-19 20.5t-8.5 40h-2q-20 -36 -55.5 -56.5t-73.5 -20.5q-75 0 -110.5 42t-35.5 114q0 57 24.5 94.5t76.5 53.5l113 34q23 7 35.5 14.5t18 16.5t6.5 21t1 29q0 79 -86 79q-35 0 -53.5 -13.5t-27 -31.5
t-10 -35.5t-1.5 -24.5v-5h-84zM258 751h98l-108 -142h-60z" />
    <glyph glyph-name="acircumflex" unicode="&#xe2;" horiz-adv-x="444" 
d="M301 292q-12 -12 -30.5 -20t-39 -14.5l-40 -13t-33.5 -15.5q-20 -13 -30.5 -31.5t-10.5 -53.5q0 -42 16.5 -67t59.5 -25q21 0 40.5 8t34.5 22t24 32.5t9 39.5v138zM42 374q0 91 42 133.5t138 42.5q61 0 94 -16t48.5 -40t18 -50.5t2.5 -47.5v-299q0 -17 3 -30t23 -13
q8 0 12.5 1.5t7.5 3.5v-60q-5 -1 -19 -3t-30 -2q-12 0 -24.5 1t-24 7.5t-19 20.5t-8.5 40h-2q-20 -36 -55.5 -56.5t-73.5 -20.5q-75 0 -110.5 42t-35.5 114q0 57 24.5 94.5t76.5 53.5l113 34q23 7 35.5 14.5t18 16.5t6.5 21t1 29q0 79 -86 79q-35 0 -53.5 -13.5t-27 -31.5
t-10 -35.5t-1.5 -24.5v-5h-84zM185 751h77l100 -142h-78l-61 88l-61 -88h-78z" />
    <glyph glyph-name="adieresis" unicode="&#xe4;" horiz-adv-x="444" 
d="M301 292q-12 -12 -30.5 -20t-39 -14.5l-40 -13t-33.5 -15.5q-20 -13 -30.5 -31.5t-10.5 -53.5q0 -42 16.5 -67t59.5 -25q21 0 40.5 8t34.5 22t24 32.5t9 39.5v138zM42 374q0 91 42 133.5t138 42.5q61 0 94 -16t48.5 -40t18 -50.5t2.5 -47.5v-299q0 -17 3 -30t23 -13
q8 0 12.5 1.5t7.5 3.5v-60q-5 -1 -19 -3t-30 -2q-12 0 -24.5 1t-24 7.5t-19 20.5t-8.5 40h-2q-20 -36 -55.5 -56.5t-73.5 -20.5q-75 0 -110.5 42t-35.5 114q0 57 24.5 94.5t76.5 53.5l113 34q23 7 35.5 14.5t18 16.5t6.5 21t1 29q0 79 -86 79q-35 0 -53.5 -13.5t-27 -31.5
t-10 -35.5t-1.5 -24.5v-5h-84zM263 731h78v-101h-78v101zM101 731h78v-101h-78v101z" />
    <glyph glyph-name="agrave" unicode="&#xe0;" horiz-adv-x="444" 
d="M301 292q-12 -12 -30.5 -20t-39 -14.5l-40 -13t-33.5 -15.5q-20 -13 -30.5 -31.5t-10.5 -53.5q0 -42 16.5 -67t59.5 -25q21 0 40.5 8t34.5 22t24 32.5t9 39.5v138zM42 374q0 91 42 133.5t138 42.5q61 0 94 -16t48.5 -40t18 -50.5t2.5 -47.5v-299q0 -17 3 -30t23 -13
q8 0 12.5 1.5t7.5 3.5v-60q-5 -1 -19 -3t-30 -2q-12 0 -24.5 1t-24 7.5t-19 20.5t-8.5 40h-2q-20 -36 -55.5 -56.5t-73.5 -20.5q-75 0 -110.5 42t-35.5 114q0 57 24.5 94.5t76.5 53.5l113 34q23 7 35.5 14.5t18 16.5t6.5 21t1 29q0 79 -86 79q-35 0 -53.5 -13.5t-27 -31.5
t-10 -35.5t-1.5 -24.5v-5h-84zM210 751l70 -142h-60l-108 142h98z" />
    <glyph glyph-name="aring" unicode="&#xe5;" horiz-adv-x="444" 
d="M301 292q-12 -12 -30.5 -20t-39 -14.5l-40 -13t-33.5 -15.5q-20 -13 -30.5 -31.5t-10.5 -53.5q0 -42 16.5 -67t59.5 -25q21 0 40.5 8t34.5 22t24 32.5t9 39.5v138zM42 374q0 91 42 133.5t138 42.5q61 0 94 -16t48.5 -40t18 -50.5t2.5 -47.5v-299q0 -17 3 -30t23 -13
q8 0 12.5 1.5t7.5 3.5v-60q-5 -1 -19 -3t-30 -2q-12 0 -24.5 1t-24 7.5t-19 20.5t-8.5 40h-2q-20 -36 -55.5 -56.5t-73.5 -20.5q-75 0 -110.5 42t-35.5 114q0 57 24.5 94.5t76.5 53.5l113 34q23 7 35.5 14.5t18 16.5t6.5 21t1 29q0 79 -86 79q-35 0 -53.5 -13.5t-27 -31.5
t-10 -35.5t-1.5 -24.5v-5h-84zM164 690q0 -23 17 -40t40 -17t40 17t17 40t-17 40t-40 17t-40 -17t-17 -40zM122 690q0 42 28.5 70.5t70.5 28.5t70.5 -28.5t28.5 -70.5t-28.5 -70.5t-70.5 -28.5t-70.5 28.5t-28.5 70.5z" />
    <glyph glyph-name="atilde" unicode="&#xe3;" horiz-adv-x="444" 
d="M301 292q-12 -12 -30.5 -20t-39 -14.5l-40 -13t-33.5 -15.5q-20 -13 -30.5 -31.5t-10.5 -53.5q0 -42 16.5 -67t59.5 -25q21 0 40.5 8t34.5 22t24 32.5t9 39.5v138zM42 374q0 91 42 133.5t138 42.5q61 0 94 -16t48.5 -40t18 -50.5t2.5 -47.5v-299q0 -17 3 -30t23 -13
q8 0 12.5 1.5t7.5 3.5v-60q-5 -1 -19 -3t-30 -2q-12 0 -24.5 1t-24 7.5t-19 20.5t-8.5 40h-2q-20 -36 -55.5 -56.5t-73.5 -20.5q-75 0 -110.5 42t-35.5 114q0 57 24.5 94.5t76.5 53.5l113 34q23 7 35.5 14.5t18 16.5t6.5 21t1 29q0 79 -86 79q-35 0 -53.5 -13.5t-27 -31.5
t-10 -35.5t-1.5 -24.5v-5h-84zM366 739q0 -19 -5.5 -38.5t-16 -35.5t-27 -26.5t-37.5 -10.5q-16 0 -33 6t-32.5 13l-28.5 13t-21 6q-20 0 -28.5 -15.5t-10.5 -29.5h-54q0 22 7 42t19.5 35.5t29.5 24.5t37 9q14 0 29.5 -5.5t30.5 -13.5l28.5 -13t23.5 -6q19 0 25.5 15.5
t9.5 29.5h54z" />
    <glyph glyph-name="ccedilla" unicode="&#xe7;" horiz-adv-x="426" 
d="M124 -156q1 0 8.5 -2t17.5 -4l20.5 -4t17.5 -2q31 0 43 12t12 27q0 17 -14.5 27t-32.5 10q-13 0 -23.5 -2.5t-16.5 -4.5l-15 18l50 69q-79 8 -116 66q-43 67 -43 207q0 50 6.5 101.5t27 93t58 68t99.5 26.5q55 0 88.5 -19t52 -46.5t24.5 -58t6 -53.5h-84q0 19 -4.5 39
t-14 36t-26 26t-40.5 10q-20 0 -38.5 -7t-33.5 -30.5t-24 -67.5t-9 -117q0 -26 1.5 -62t11.5 -69t30.5 -56t58.5 -23q27 0 44 13t27 32.5t13.5 43t3.5 45.5h84q0 -25 -5 -50.5t-15.5 -49.5t-28.5 -45t-43 -36q-28 -16 -70 -18l-29 -41l2 -2q8 2 14 3t16 1q13 0 27 -3.5
t26 -12t19.5 -22.5t7.5 -36q0 -18 -9 -33t-23.5 -26.5t-34 -18t-40.5 -6.5q-28 0 -55 6t-44 14z" />
    <glyph glyph-name="eacute" unicode="&#xe9;" horiz-adv-x="444" 
d="M125 258q0 -31 1.5 -67t11.5 -67t30.5 -51.5t59.5 -20.5q30 0 48 13.5t27.5 33t12.5 41t3 36.5h84q0 -21 -7.5 -53.5t-27.5 -63t-55 -52t-90 -21.5q-99 0 -142.5 68t-43.5 207q0 50 6.5 101.5t27 93t58 68t99.5 26.5q61 0 97 -24t54 -61.5t23 -83.5t5 -89v-34h-282z
M319 324v29q0 22 -4 45.5t-14.5 42.5t-28.5 31t-46 12q-33 0 -52.5 -17.5t-29.5 -40.5t-13 -46.5t-3 -35.5v-20h191zM266 751h98l-108 -142h-60z" />
    <glyph glyph-name="ecircumflex" unicode="&#xea;" horiz-adv-x="444" 
d="M125 258q0 -31 1.5 -67t11.5 -67t30.5 -51.5t59.5 -20.5q30 0 48 13.5t27.5 33t12.5 41t3 36.5h84q0 -21 -7.5 -53.5t-27.5 -63t-55 -52t-90 -21.5q-99 0 -142.5 68t-43.5 207q0 50 6.5 101.5t27 93t58 68t99.5 26.5q61 0 97 -24t54 -61.5t23 -83.5t5 -89v-34h-282z
M319 324v29q0 22 -4 45.5t-14.5 42.5t-28.5 31t-46 12q-33 0 -52.5 -17.5t-29.5 -40.5t-13 -46.5t-3 -35.5v-20h191zM190 751h77l100 -142h-78l-61 88l-61 -88h-78z" />
    <glyph glyph-name="edieresis" unicode="&#xeb;" horiz-adv-x="444" 
d="M125 258q0 -31 1.5 -67t11.5 -67t30.5 -51.5t59.5 -20.5q30 0 48 13.5t27.5 33t12.5 41t3 36.5h84q0 -21 -7.5 -53.5t-27.5 -63t-55 -52t-90 -21.5q-99 0 -142.5 68t-43.5 207q0 50 6.5 101.5t27 93t58 68t99.5 26.5q61 0 97 -24t54 -61.5t23 -83.5t5 -89v-34h-282z
M319 324v29q0 22 -4 45.5t-14.5 42.5t-28.5 31t-46 12q-33 0 -52.5 -17.5t-29.5 -40.5t-13 -46.5t-3 -35.5v-20h191zM271 731h78v-101h-78v101zM109 731h78v-101h-78v101z" />
    <glyph glyph-name="egrave" unicode="&#xe8;" horiz-adv-x="444" 
d="M125 258q0 -31 1.5 -67t11.5 -67t30.5 -51.5t59.5 -20.5q30 0 48 13.5t27.5 33t12.5 41t3 36.5h84q0 -21 -7.5 -53.5t-27.5 -63t-55 -52t-90 -21.5q-99 0 -142.5 68t-43.5 207q0 50 6.5 101.5t27 93t58 68t99.5 26.5q61 0 97 -24t54 -61.5t23 -83.5t5 -89v-34h-282z
M319 324v29q0 22 -4 45.5t-14.5 42.5t-28.5 31t-46 12q-33 0 -52.5 -17.5t-29.5 -40.5t-13 -46.5t-3 -35.5v-20h191zM205 751l70 -142h-60l-108 142h98z" />
    <glyph glyph-name="iacute" unicode="&#xed;" horiz-adv-x="204" 
d="M60 536h84v-536h-84v536zM130 751h98l-108 -142h-60z" />
    <glyph glyph-name="icircumflex" unicode="&#xee;" horiz-adv-x="204" 
d="M60 536h84v-536h-84v536zM64 751h77l100 -142h-78l-61 88l-61 -88h-78z" />
    <glyph glyph-name="idieresis" unicode="&#xef;" horiz-adv-x="204" 
d="M60 536h84v-536h-84v536zM144 731h78v-101h-78v101zM-18 731h78v-101h-78v101z" />
    <glyph glyph-name="igrave" unicode="&#xec;" horiz-adv-x="204" 
d="M60 536h84v-536h-84v536zM73 751l70 -142h-60l-108 142h98z" />
    <glyph glyph-name="ntilde" unicode="&#xf1;" 
d="M55 536h80v-63h2q17 37 54 57t76 20q53 0 81.5 -17.5t42 -43.5t15.5 -55.5t2 -53.5v-380h-84v370q0 15 -1.5 34t-9.5 35.5t-24 27.5t-44 11q-17 0 -35.5 -6t-34.5 -19t-26 -33.5t-10 -49.5v-370h-84v536zM378 739q0 -19 -5.5 -38.5t-16 -35.5t-27 -26.5t-37.5 -10.5
q-16 0 -33 6t-32.5 13l-28.5 13t-21 6q-20 0 -28.5 -15.5t-10.5 -29.5h-54q0 22 7 42t19.5 35.5t29.5 24.5t37 9q14 0 29.5 -5.5t30.5 -13.5l28.5 -13t23.5 -6q19 0 25.5 15.5t9.5 29.5h54z" />
    <glyph glyph-name="oacute" unicode="&#xf3;" horiz-adv-x="444" 
d="M29 268q0 57 8.5 108t30 89.5t59 61.5t95.5 23t95.5 -23t59 -61.5t30 -89.5t8.5 -108t-8.5 -108t-30.5 -89.5t-59 -61.5t-95 -23t-95.5 23t-59 61.5t-30 89.5t-8.5 108zM220 52q33 0 54 17.5t33 47t16 68.5t4 83q0 43 -4 82.5t-15.5 69t-32.5 47t-55 17.5
q-32 0 -52 -17.5t-31.5 -47t-15.5 -69t-4 -82.5q0 -44 4 -83t15 -68.5t31.5 -47t52.5 -17.5zM259 751h98l-108 -142h-60z" />
    <glyph glyph-name="ocircumflex" unicode="&#xf4;" horiz-adv-x="444" 
d="M29 268q0 57 8.5 108t30 89.5t59 61.5t95.5 23t95.5 -23t59 -61.5t30 -89.5t8.5 -108t-8.5 -108t-30.5 -89.5t-59 -61.5t-95 -23t-95.5 23t-59 61.5t-30 89.5t-8.5 108zM220 52q33 0 54 17.5t33 47t16 68.5t4 83q0 43 -4 82.5t-15.5 69t-32.5 47t-55 17.5
q-32 0 -52 -17.5t-31.5 -47t-15.5 -69t-4 -82.5q0 -44 4 -83t15 -68.5t31.5 -47t52.5 -17.5zM184 751h77l100 -142h-78l-61 88l-61 -88h-78z" />
    <glyph glyph-name="odieresis" unicode="&#xf6;" horiz-adv-x="444" 
d="M29 268q0 57 8.5 108t30 89.5t59 61.5t95.5 23t95.5 -23t59 -61.5t30 -89.5t8.5 -108t-8.5 -108t-30.5 -89.5t-59 -61.5t-95 -23t-95.5 23t-59 61.5t-30 89.5t-8.5 108zM220 52q33 0 54 17.5t33 47t16 68.5t4 83q0 43 -4 82.5t-15.5 69t-32.5 47t-55 17.5
q-32 0 -52 -17.5t-31.5 -47t-15.5 -69t-4 -82.5q0 -44 4 -83t15 -68.5t31.5 -47t52.5 -17.5zM264 731h78v-101h-78v101zM102 731h78v-101h-78v101z" />
    <glyph glyph-name="ograve" unicode="&#xf2;" horiz-adv-x="444" 
d="M29 268q0 57 8.5 108t30 89.5t59 61.5t95.5 23t95.5 -23t59 -61.5t30 -89.5t8.5 -108t-8.5 -108t-30.5 -89.5t-59 -61.5t-95 -23t-95.5 23t-59 61.5t-30 89.5t-8.5 108zM220 52q33 0 54 17.5t33 47t16 68.5t4 83q0 43 -4 82.5t-15.5 69t-32.5 47t-55 17.5
q-32 0 -52 -17.5t-31.5 -47t-15.5 -69t-4 -82.5q0 -44 4 -83t15 -68.5t31.5 -47t52.5 -17.5zM189 751l70 -142h-60l-108 142h98z" />
    <glyph glyph-name="otilde" unicode="&#xf5;" horiz-adv-x="444" 
d="M29 268q0 57 8.5 108t30 89.5t59 61.5t95.5 23t95.5 -23t59 -61.5t30 -89.5t8.5 -108t-8.5 -108t-30.5 -89.5t-59 -61.5t-95 -23t-95.5 23t-59 61.5t-30 89.5t-8.5 108zM220 52q33 0 54 17.5t33 47t16 68.5t4 83q0 43 -4 82.5t-15.5 69t-32.5 47t-55 17.5
q-32 0 -52 -17.5t-31.5 -47t-15.5 -69t-4 -82.5q0 -44 4 -83t15 -68.5t31.5 -47t52.5 -17.5zM369 739q0 -19 -5.5 -38.5t-16 -35.5t-27 -26.5t-37.5 -10.5q-16 0 -33 6t-32.5 13l-28.5 13t-21 6q-20 0 -28.5 -15.5t-10.5 -29.5h-54q0 22 7 42t19.5 35.5t29.5 24.5t37 9
q14 0 29.5 -5.5t30.5 -13.5l28.5 -13t23.5 -6q19 0 25.5 15.5t9.5 29.5h54z" />
    <glyph glyph-name="scaron" unicode="&#x161;" horiz-adv-x="407" 
d="M285 379q0 51 -16.5 78t-62.5 27q-10 0 -25 -2.5t-28.5 -10.5t-23.5 -24.5t-10 -44.5q0 -24 11.5 -39t30 -25.5t42 -17.5l48.5 -15q24 -8 47.5 -17.5t42 -26t30 -42t11.5 -65.5q0 -42 -13 -73.5t-36 -52.5t-55 -31.5t-69 -10.5q-68 0 -105.5 22t-55 52.5t-20.5 62.5
t-3 53h84q0 -24 4 -46.5t15 -40t30.5 -27.5t50.5 -10q10 0 25 3t29.5 13t24.5 27t10 46q0 27 -11.5 44.5t-30 29t-42 19.5l-47.5 16t-48 17.5t-42.5 25.5t-30 42t-11.5 67q0 37 13.5 65t37 46.5t54.5 27.5t66 9q58 0 91 -18t49 -44t19.5 -55.5t3.5 -53.5h-84zM243 609h-77
l-100 142h78l61 -88l61 88h78z" />
    <glyph glyph-name="uacute" unicode="&#xfa;" 
d="M408 0h-80v63h-2q-17 -37 -54 -57t-76 -20q-53 0 -81.5 17.5t-42 43.5t-15.5 55.5t-2 53.5v380h84v-370q0 -15 1.5 -34t9.5 -35.5t23.5 -27.5t44.5 -11q17 0 35.5 6t34.5 19t26 33.5t10 49.5v370h84v-536zM265 751h98l-108 -142h-60z" />
    <glyph glyph-name="ucircumflex" unicode="&#xfb;" 
d="M408 0h-80v63h-2q-17 -37 -54 -57t-76 -20q-53 0 -81.5 17.5t-42 43.5t-15.5 55.5t-2 53.5v380h84v-370q0 -15 1.5 -34t9.5 -35.5t23.5 -27.5t44.5 -11q17 0 35.5 6t34.5 19t26 33.5t10 49.5v370h84v-536zM194 751h77l100 -142h-78l-61 88l-61 -88h-78z" />
    <glyph glyph-name="udieresis" unicode="&#xfc;" 
d="M408 0h-80v63h-2q-17 -37 -54 -57t-76 -20q-53 0 -81.5 17.5t-42 43.5t-15.5 55.5t-2 53.5v380h84v-370q0 -15 1.5 -34t9.5 -35.5t23.5 -27.5t44.5 -11q17 0 35.5 6t34.5 19t26 33.5t10 49.5v370h84v-536zM273 731h78v-101h-78v101zM111 731h78v-101h-78v101z" />
    <glyph glyph-name="ugrave" unicode="&#xf9;" 
d="M408 0h-80v63h-2q-17 -37 -54 -57t-76 -20q-53 0 -81.5 17.5t-42 43.5t-15.5 55.5t-2 53.5v380h84v-370q0 -15 1.5 -34t9.5 -35.5t23.5 -27.5t44.5 -11q17 0 35.5 6t34.5 19t26 33.5t10 49.5v370h84v-536zM197 751l70 -142h-60l-108 142h98z" />
    <glyph glyph-name="yacute" unicode="&#xfd;" horiz-adv-x="406" 
d="M10 536h92l106 -430h2l94 430h92l-155 -572q-8 -28 -17 -53t-24.5 -44.5t-39.5 -31t-62 -11.5q-25 0 -37.5 1t-23.5 2v66q18 -3 49 -3q29 0 43.5 15t22.5 37l16 47zM246 751h98l-108 -142h-60z" />
    <glyph glyph-name="ydieresis" unicode="&#xff;" horiz-adv-x="406" 
d="M10 536h92l106 -430h2l94 430h92l-155 -572q-8 -28 -17 -53t-24.5 -44.5t-39.5 -31t-62 -11.5q-25 0 -37.5 1t-23.5 2v66q18 -3 49 -3q29 0 43.5 15t22.5 37l16 47zM252 731h78v-101h-78v101zM90 731h78v-101h-78v101z" />
    <glyph glyph-name="zcaron" unicode="&#x17e;" horiz-adv-x="389" 
d="M39 536h323v-70l-240 -394h238v-72h-333v66l243 398h-231v72zM236 609h-77l-100 142h78l61 -88l61 88h78z" />
    <glyph glyph-name="Euro" unicode="&#x20ac;" horiz-adv-x="480" 
d="M433 590q-27 23 -54 37.5t-63 14.5q-42 0 -68 -17t-41 -44.5t-21.5 -61.5t-9.5 -68h227l-21 -60h-210l-1 -55h195l-21 -60h-173q1 -35 6 -74t19.5 -72t41.5 -54.5t72 -21.5q43 0 77.5 18t66.5 44v-87q-36 -23 -72 -33t-79 -10q-66 0 -108.5 24.5t-67 65t-35 92.5
t-13.5 108h-61l21 60h39l1 55h-62l21 60h44q5 52 19 99.5t40.5 83t68 56.5t101.5 21q45 0 80.5 -13t72.5 -37z" />
    <glyph glyph-name="notequal" unicode="&#x2260;" horiz-adv-x="593" 
d="M263 114l-76 -146l-62 32l59 114h-141v72h178l67 127h-245v71h283l77 148l62 -32l-61 -116h146v-71h-183l-67 -127h250v-72h-287z" />
    <glyph glyph-name="infinity" unicode="&#x221e;" horiz-adv-x="759" 
d="M337 251l-31.5 28.5t-37 29t-40.5 23t-41 9.5q-38 0 -59 -27t-21 -62q0 -38 22 -62t61 -24q20 0 40.5 8t39.5 21t36 27.5t31 28.5zM652 252q0 38 -21 64t-61 26q-21 0 -41.5 -9.5t-39 -23t-35.5 -29.5l-31 -29l32.5 -30t35 -27t39 -20t43.5 -8q38 0 58.5 25t20.5 61z
M717 255q0 -33 -10 -61.5t-29 -50t-46.5 -33.5t-61.5 -12q-29 0 -55 9.5t-50 25t-45 35t-40 39.5l-42.5 -38.5t-44 -35t-48.5 -25t-56 -9.5q-33 0 -60.5 11.5t-46.5 32t-29.5 48.5t-10.5 61q0 32 10 60.5t28.5 49.5t45.5 33.5t61 12.5q30 0 56.5 -10t50 -26.5t45 -37
l41.5 -40.5l40.5 40.5t43.5 37.5t49 27.5t56 10.5q34 0 61 -12t46.5 -33t30 -49t10.5 -61z" />
    <glyph glyph-name="lessequal" unicode="&#x2264;" horiz-adv-x="593" 
d="M43 -30v72h507v-72h-507zM43 266v75l507 187v-78l-408 -146l408 -145v-77z" />
    <glyph glyph-name="greaterequal" unicode="&#x2265;" horiz-adv-x="593" 
d="M43 -30v72h507v-72h-507zM43 82v77l408 145l-408 146v78l507 -187v-75z" />
    <glyph glyph-name="partialdiff" unicode="&#x2202;" horiz-adv-x="511" 
d="M389 280q-26 35 -64.5 60t-83.5 25q-33 0 -58.5 -13t-42 -34.5t-25 -49.5t-8.5 -58q0 -29 8 -58t24.5 -52t41.5 -37.5t58 -14.5q42 0 70.5 23.5t46 59t25.5 76t8 73.5zM469 362q0 -38 -3.5 -80.5t-12.5 -84.5t-25.5 -79.5t-42.5 -66.5t-62.5 -46t-85.5 -17
q-47 0 -85 18.5t-64.5 49t-40.5 71.5t-14 86q0 44 13.5 83t39.5 68t62.5 46t83.5 17q48 0 89.5 -20.5t71.5 -55.5q0 11 0.5 22.5t0.5 22.5q0 40 -8.5 86t-28.5 85t-53.5 65t-82.5 26q-34 0 -61 -13.5t-53 -33.5l-42 50q33 29 70.5 44.5t82.5 15.5q73 0 121.5 -33.5
t77.5 -85.5t40.5 -116t11.5 -124z" />
    <glyph glyph-name="summation" unicode="&#x2211;" horiz-adv-x="615" 
d="M25 -214v64l322 440l-308 432v64h538v-72h-437l301 -424l-319 -432h467v-72h-564z" />
    <glyph glyph-name="product" unicode="&#x220f;" horiz-adv-x="719" 
d="M572 -214v928h-426v-928h-78v1000h582v-1000h-78z" />
    <glyph glyph-name="pi" unicode="&#x3c0;" horiz-adv-x="570" 
d="M547 11q-17 -8 -33 -12.5t-36 -4.5q-30 0 -47.5 9.5t-26 26t-10.5 38.5t-2 46v296h-246v-410h-75v410h-69v69h541v-69h-76v-299q0 -22 6 -37.5t32 -15.5q21 0 42 10v-57z" />
    <glyph glyph-name="integral" unicode="&#x222b;" horiz-adv-x="554" 
d="M420 730q0 -18 -12.5 -28t-29.5 -10q-12 0 -20 6.5t-14 15l-11 15t-11 6.5q-15 0 -22 -20t-8.5 -45t-0.5 -47.5t1 -28.5l1 -39v-511q0 -35 -1 -79t-12.5 -84t-37.5 -67t-75 -27q-11 0 -23.5 3t-22.5 9.5t-16.5 16t-6.5 23.5t11.5 25t25.5 11q12 0 19.5 -6.5t13 -14.5
l10 -14.5t9.5 -6.5q13 0 19.5 22t8 49t1 51t-0.5 29v22v495q0 24 -1 54.5t1 62t8 62t20 54t37.5 38t60.5 14.5q13 0 27 -3t25.5 -9.5t19 -17.5t7.5 -26z" />
    <glyph glyph-name="Omega" unicode="&#x2126;" horiz-adv-x="748" 
d="M432 0v183q87 17 131.5 78.5t44.5 148.5q0 52 -18 95.5t-50 75.5t-76 50t-96 18q-51 0 -95.5 -18t-76.5 -50t-50.5 -76t-18.5 -95q0 -42 11.5 -80.5t33.5 -68.5t55 -50.5t77 -27.5v-183h-257v67h193v72q-47 13 -82.5 39.5t-60.5 63t-37.5 80.5t-12.5 91q0 67 25.5 124
t69.5 97.5t102 63.5t124 23t124 -22.5t101.5 -63t69 -97t25.5 -123.5q0 -48 -12.5 -92t-36.5 -80.5t-60 -63.5t-83 -40v-72h192v-67h-256z" />
    <glyph glyph-name="radical" unicode="&#x221a;" horiz-adv-x="504" 
d="M303 -214h-75l-162 334l-47 -22l-28 60l112 52l151 -317l184 893h76z" />
    <glyph glyph-name="approxequal" unicode="&#x2248;" horiz-adv-x="593" 
d="M560 234q-3 -28 -11.5 -54t-24 -46.5t-38.5 -32.5t-55 -12t-69 11t-74 24.5l-70.5 25t-58.5 11.5q-32 0 -51.5 -24.5t-23.5 -53.5h-52q4 27 13 53.5t24 47.5t37.5 34t54.5 13q33 0 68.5 -11t71.5 -24.5t70 -24.5t64 -11q34 0 51.5 22t23.5 52h50zM561 415
q-3 -28 -11.5 -54.5t-24.5 -46.5t-39 -32.5t-55 -12.5q-33 0 -70 11t-73 24.5t-69.5 24.5t-58.5 11q-32 0 -51.5 -24t-24.5 -53h-51q3 27 11.5 53.5t24 47.5t38.5 34t55 13t68 -11t72 -24.5t70 -24.5t64 -11q34 0 51.5 22.5t23.5 52.5h50z" />
    <glyph glyph-name="Delta" unicode="&#x2206;" horiz-adv-x="674" 
d="M333 628l-213 -556h430zM13 0l279 712h83l287 -712h-649z" />
    <glyph glyph-name="lozenge" unicode="&#x25ca;" horiz-adv-x="593" 
d="M296 671l-131 -315l131 -315l132 315zM332 -35h-72l-171 391l171 391h72l172 -391z" />
    <glyph glyph-name="commaaccent" unicode="&#xf004;" horiz-adv-x="240" 
d="M78 -50h83v-80q0 -41 -19.5 -59t-58.5 -21v26q13 4 22.5 11t11.5 32h-39v91z" />
    <glyph glyph-name="commaaccent" unicode="&#xf6c3;" horiz-adv-x="240" 
d="M78 -50h83v-80q0 -41 -19.5 -59t-58.5 -21v26q13 4 22.5 11t11.5 32h-39v91z" />
    <glyph glyph-name="commaaccent.alt" horiz-adv-x="240" 
d="M162 623h-83v85q0 69 78 75v-26q-13 -4 -22.5 -11t-11.5 -32h39v-91z" />
    <glyph glyph-name="caron.alt" horiz-adv-x="204" 
d="M78 714h87l-59 -142h-54z" />
    <glyph glyph-name="Amacron" unicode="&#x100;" horiz-adv-x="500" 
d="M155 268h192l-91 345h-2zM198 714h118l192 -714h-92l-51 196h-228l-53 -196h-92zM125 871h264v-54h-264v54z" />
    <glyph glyph-name="Abreve" unicode="&#x102;" horiz-adv-x="500" 
d="M155 268h192l-91 345h-2zM198 714h118l192 -714h-92l-51 196h-228l-53 -196h-92zM181 890q0 -14 7 -26t18 -21t24.5 -14.5t27.5 -5.5q13 0 27 5.5t25 14.5t18 21t7 26h48q0 -15 -5.5 -37t-19.5 -42t-38.5 -34t-61.5 -14q-38 0 -62 14t-38 34t-19.5 42t-5.5 37h48z" />
    <glyph glyph-name="Aogonek" unicode="&#x104;" horiz-adv-x="500" 
d="M469 0q-33 -24 -53 -42.5t-31.5 -33t-15.5 -26.5t-4 -23q0 -38 40 -38q20 0 34.5 4t31.5 12l18 -35q-25 -15 -52.5 -21.5t-49.5 -6.5q-49 0 -71.5 21t-22.5 57q0 73 123 132l-51 196h-228l-53 -196h-92l206 714h118l192 -714h-39zM155 268h192l-91 345h-2z" />
    <glyph glyph-name="Cacute" unicode="&#x106;" horiz-adv-x="519" 
d="M495 245q-3 -51 -15.5 -97.5t-37.5 -82.5t-65.5 -57.5t-98.5 -21.5q-76 0 -121.5 32.5t-69.5 85.5t-31.5 119t-7.5 134q0 67 8 133.5t33 119.5t70 85.5t119 32.5q109 0 158.5 -58t52.5 -164h-92q-1 30 -7 57.5t-19.5 48t-36 32.5t-56.5 12q-46 0 -73 -23.5t-41.5 -64
t-19 -95t-4.5 -116.5t4.5 -116.5t19 -95t41.5 -64t73 -23.5q40 0 64 17t37.5 44t18 60t5.5 66h92zM318 915h98l-108 -142h-60z" />
    <glyph glyph-name="Ccircumflex" unicode="&#x108;" horiz-adv-x="519" 
d="M495 245q-3 -51 -15.5 -97.5t-37.5 -82.5t-65.5 -57.5t-98.5 -21.5q-76 0 -121.5 32.5t-69.5 85.5t-31.5 119t-7.5 134q0 67 8 133.5t33 119.5t70 85.5t119 32.5q109 0 158.5 -58t52.5 -164h-92q-1 30 -7 57.5t-19.5 48t-36 32.5t-56.5 12q-46 0 -73 -23.5t-41.5 -64
t-19 -95t-4.5 -116.5t4.5 -116.5t19 -95t41.5 -64t73 -23.5q40 0 64 17t37.5 44t18 60t5.5 66h92zM242 915h77l100 -142h-78l-61 88l-61 -88h-78z" />
    <glyph glyph-name="Ccaron" unicode="&#x10c;" horiz-adv-x="519" 
d="M495 245q-3 -51 -15.5 -97.5t-37.5 -82.5t-65.5 -57.5t-98.5 -21.5q-76 0 -121.5 32.5t-69.5 85.5t-31.5 119t-7.5 134q0 67 8 133.5t33 119.5t70 85.5t119 32.5q109 0 158.5 -58t52.5 -164h-92q-1 30 -7 57.5t-19.5 48t-36 32.5t-56.5 12q-46 0 -73 -23.5t-41.5 -64
t-19 -95t-4.5 -116.5t4.5 -116.5t19 -95t41.5 -64t73 -23.5q40 0 64 17t37.5 44t18 60t5.5 66h92zM315 773h-77l-100 142h78l61 -88l61 88h78z" />
    <glyph glyph-name="Cdotaccent" unicode="&#x10a;" horiz-adv-x="519" 
d="M495 245q-3 -51 -15.5 -97.5t-37.5 -82.5t-65.5 -57.5t-98.5 -21.5q-76 0 -121.5 32.5t-69.5 85.5t-31.5 119t-7.5 134q0 67 8 133.5t33 119.5t70 85.5t119 32.5q109 0 158.5 -58t52.5 -164h-92q-1 30 -7 57.5t-19.5 48t-36 32.5t-56.5 12q-46 0 -73 -23.5t-41.5 -64
t-19 -95t-4.5 -116.5t4.5 -116.5t19 -95t41.5 -64t73 -23.5q40 0 64 17t37.5 44t18 60t5.5 66h92zM240 895h78v-101h-78v101z" />
    <glyph glyph-name="Dcaron" unicode="&#x10e;" horiz-adv-x="556" 
d="M67 714h191q83 0 132.5 -28t75.5 -76.5t34 -113.5t8 -139q0 -68 -10 -132t-37 -114t-74 -80.5t-120 -30.5h-200v714zM155 72h92q57 0 90.5 26.5t51 67.5t22.5 91.5t5 98.5q0 52 -4 103t-20.5 91.5t-50.5 66t-94 25.5h-92v-570zM289 773h-77l-100 142h78l61 -88l61 88h78z
" />
    <glyph glyph-name="Ecaron" unicode="&#x11a;" 
d="M58 714h369v-78h-281v-224h265v-78h-265v-256h293v-78h-381v714zM281 773h-77l-100 142h78l61 -88l61 88h78z" />
    <glyph glyph-name="Emacron" unicode="&#x112;" 
d="M58 714h369v-78h-281v-224h265v-78h-265v-256h293v-78h-381v714zM115 871h264v-54h-264v54z" />
    <glyph glyph-name="Ebreve" unicode="&#x114;" 
d="M58 714h369v-78h-281v-224h265v-78h-265v-256h293v-78h-381v714zM163 908q0 -14 7 -26t18 -21t24.5 -14.5t27.5 -5.5q13 0 27 5.5t25 14.5t18 21t7 26h48q0 -15 -5.5 -37t-19.5 -42t-38.5 -34t-61.5 -14q-38 0 -62 14t-38 34t-19.5 42t-5.5 37h48z" />
    <glyph glyph-name="Edotaccent" unicode="&#x116;" 
d="M58 714h369v-78h-281v-224h265v-78h-265v-256h293v-78h-381v714zM205 895h78v-101h-78v101z" />
    <glyph glyph-name="Eogonek" unicode="&#x118;" 
d="M419 0q-33 -24 -53 -42.5t-31.5 -33t-15.5 -26.5t-4 -23q0 -38 40 -38q20 0 34.5 4t31.5 12l18 -35q-25 -15 -52.5 -21.5t-49.5 -6.5q-49 0 -71.5 21t-22.5 57q0 73 123 132h-308v714h369v-78h-281v-224h265v-78h-265v-256h293v-78h-20z" />
    <glyph glyph-name="Gcircumflex" unicode="&#x11c;" horiz-adv-x="537" 
d="M397 516q-2 28 -8.5 53.5t-20 44.5t-35.5 30.5t-55 11.5q-46 0 -73 -23.5t-41.5 -64t-19 -95t-4.5 -116.5t4.5 -116.5t19 -95t41.5 -64t73 -23.5t72 24.5t39 60.5t16.5 78t3.5 78h-141v72h221v-371h-66v97h-2q-14 -46 -54 -78.5t-100 -32.5q-70 0 -113 31t-66.5 82.5
t-31.5 118.5t-8 139q0 67 8 133.5t33 119.5t70 85.5t119 32.5q51 0 86.5 -13t59 -33.5t36.5 -45.5t19.5 -48.5t8 -43t1.5 -28.5h-92zM243 915h77l100 -142h-78l-61 88l-61 -88h-78z" />
    <glyph glyph-name="Gbreve" unicode="&#x11e;" horiz-adv-x="537" 
d="M397 516q-2 28 -8.5 53.5t-20 44.5t-35.5 30.5t-55 11.5q-46 0 -73 -23.5t-41.5 -64t-19 -95t-4.5 -116.5t4.5 -116.5t19 -95t41.5 -64t73 -23.5t72 24.5t39 60.5t16.5 78t3.5 78h-141v72h221v-371h-66v97h-2q-14 -46 -54 -78.5t-100 -32.5q-70 0 -113 31t-66.5 82.5
t-31.5 118.5t-8 139q0 67 8 133.5t33 119.5t70 85.5t119 32.5q51 0 86.5 -13t59 -33.5t36.5 -45.5t19.5 -48.5t8 -43t1.5 -28.5h-92zM205 908q0 -14 7 -26t18 -21t24.5 -14.5t27.5 -5.5q13 0 27 5.5t25 14.5t18 21t7 26h48q0 -15 -5.5 -37t-19.5 -42t-38.5 -34t-61.5 -14
q-38 0 -62 14t-38 34t-19.5 42t-5.5 37h48z" />
    <glyph glyph-name="Gdotaccent" unicode="&#x120;" horiz-adv-x="537" 
d="M397 516q-2 28 -8.5 53.5t-20 44.5t-35.5 30.5t-55 11.5q-46 0 -73 -23.5t-41.5 -64t-19 -95t-4.5 -116.5t4.5 -116.5t19 -95t41.5 -64t73 -23.5t72 24.5t39 60.5t16.5 78t3.5 78h-141v72h221v-371h-66v97h-2q-14 -46 -54 -78.5t-100 -32.5q-70 0 -113 31t-66.5 82.5
t-31.5 118.5t-8 139q0 67 8 133.5t33 119.5t70 85.5t119 32.5q51 0 86.5 -13t59 -33.5t36.5 -45.5t19.5 -48.5t8 -43t1.5 -28.5h-92zM244 895h78v-101h-78v101z" />
    <glyph glyph-name="Gcommaaccent" unicode="&#x122;" horiz-adv-x="537" 
d="M397 516q-2 28 -8.5 53.5t-20 44.5t-35.5 30.5t-55 11.5q-46 0 -73 -23.5t-41.5 -64t-19 -95t-4.5 -116.5t4.5 -116.5t19 -95t41.5 -64t73 -23.5t72 24.5t39 60.5t16.5 78t3.5 78h-141v72h221v-371h-66v97h-2q-14 -46 -54 -78.5t-100 -32.5q-70 0 -113 31t-66.5 82.5
t-31.5 118.5t-8 139q0 67 8 133.5t33 119.5t70 85.5t119 32.5q51 0 86.5 -13t59 -33.5t36.5 -45.5t19.5 -48.5t8 -43t1.5 -28.5h-92zM233 -50h83v-80q0 -41 -19.5 -59t-58.5 -21v26q13 4 22.5 11t11.5 32h-39v91z" />
    <glyph glyph-name="Hcircumflex" unicode="&#x124;" horiz-adv-x="537" 
d="M479 0h-88v344h-245v-344h-88v714h88v-292h245v292h88v-714zM232 915h77l100 -142h-78l-61 88l-61 -88h-78z" />
    <glyph glyph-name="Hbar" unicode="&#x126;" horiz-adv-x="537" 
d="M479 0h-88v334h-245v-334h-88v714h88v-178h245v178h88v-714zM391 412v75h-245v-75h245z" />
    <glyph glyph-name="Itilde" unicode="&#x128;" horiz-adv-x="204" 
d="M58 714h88v-714h-88v714zM249 903q0 -19 -5.5 -38.5t-16 -35.5t-27 -26.5t-37.5 -10.5q-16 0 -33 6t-32.5 13l-28.5 13t-21 6q-20 0 -28.5 -15.5t-10.5 -29.5h-54q0 22 7 42t19.5 35.5t29.5 24.5t37 9q14 0 29.5 -5.5t30.5 -13.5l28.5 -13t23.5 -6q19 0 25.5 15.5
t9.5 29.5h54z" />
    <glyph glyph-name="Imacron" unicode="&#x12a;" horiz-adv-x="204" 
d="M58 714h88v-714h-88v714zM-30 871h264v-54h-264v54z" />
    <glyph glyph-name="Idotaccent" unicode="&#x130;" horiz-adv-x="204" 
d="M58 714h88v-714h-88v714zM63 895h78v-101h-78v101z" />
    <glyph glyph-name="Iogonek" unicode="&#x12e;" horiz-adv-x="204" 
d="M146 0q-28 -24 -45.5 -42.5t-27 -33t-12.5 -26.5t-3 -23q0 -38 34 -38q17 0 29 4t27 12l15 -35q-21 -15 -44.5 -21.5t-42.5 -6.5q-42 0 -61 21t-19 57q0 73 105 132h-43v714h88v-714z" />
    <glyph glyph-name="Jcircumflex" unicode="&#x134;" horiz-adv-x="426" 
d="M368 205q0 -48 -7.5 -88t-27 -69t-54.5 -45.5t-90 -16.5q-45 0 -76.5 13.5t-51.5 36t-29.5 52t-9.5 61.5v59h84v-52q0 -45 18.5 -71.5t63.5 -26.5q30 0 48 9.5t28 28.5t13 47t3 65v506h88v-509zM282 915h77l100 -142h-78l-61 88l-61 -88h-78z" />
    <glyph glyph-name="Kcommaaccent" unicode="&#x136;" horiz-adv-x="500" 
d="M58 714h88v-346h2l247 346h98l-216 -298l234 -416h-98l-193 344l-74 -101v-243h-88v714zM214 -50h83v-80q0 -41 -19.5 -59t-58.5 -21v26q13 4 22.5 11t11.5 32h-39v91z" />
    <glyph glyph-name="Lacute" unicode="&#x139;" horiz-adv-x="444" 
d="M58 714h88v-636h290v-78h-378v714zM140 915h98l-108 -142h-60z" />
    <glyph glyph-name="Lcaron" unicode="&#x13d;" horiz-adv-x="444" 
d="M58 714h88v-636h290v-78h-378v714zM247 714h87l-59 -142h-54z" />
    <glyph glyph-name="Lcommaaccent" unicode="&#x13b;" horiz-adv-x="444" 
d="M58 714h88v-636h290v-78h-378v714zM198 -50h83v-80q0 -41 -19.5 -59t-58.5 -21v26q13 4 22.5 11t11.5 32h-39v91z" />
    <glyph glyph-name="Nacute" unicode="&#x143;" horiz-adv-x="556" 
d="M58 714h114l236 -596h2v596h88v-714h-121l-229 578h-2v-578h-88v714zM315 915h98l-108 -142h-60z" />
    <glyph glyph-name="Ncaron" unicode="&#x147;" horiz-adv-x="556" 
d="M58 714h114l236 -596h2v596h88v-714h-121l-229 578h-2v-578h-88v714zM315 773h-77l-100 142h78l61 -88l61 88h78z" />
    <glyph glyph-name="Ncommaaccent" unicode="&#x145;" horiz-adv-x="556" 
d="M58 714h114l236 -596h2v596h88v-714h-121l-229 578h-2v-578h-88v714zM232 -50h83v-80q0 -41 -19.5 -59t-58.5 -21v26q13 4 22.5 11t11.5 32h-39v91z" />
    <glyph glyph-name="Omacron" unicode="&#x14c;" horiz-adv-x="556" 
d="M278 656q-46 0 -73 -23.5t-41.5 -64t-19 -95t-4.5 -116.5t4.5 -116.5t19 -95t41.5 -64t73 -23.5t73 23.5t41.5 64t19 95t4.5 116.5t-4.5 116.5t-19 95t-41.5 64t-73 23.5zM278 728q74 0 119 -32.5t70 -85.5t33 -119.5t8 -133.5q0 -68 -8 -134t-33 -119t-70 -85.5
t-119 -32.5t-119 32.5t-70 85.5t-33 119t-8 134q0 67 8 133.5t33 119.5t70 85.5t119 32.5zM147 871h264v-54h-264v54z" />
    <glyph glyph-name="Obreve" unicode="&#x14e;" horiz-adv-x="556" 
d="M278 656q-46 0 -73 -23.5t-41.5 -64t-19 -95t-4.5 -116.5t4.5 -116.5t19 -95t41.5 -64t73 -23.5t73 23.5t41.5 64t19 95t4.5 116.5t-4.5 116.5t-19 95t-41.5 64t-73 23.5zM278 728q74 0 119 -32.5t70 -85.5t33 -119.5t8 -133.5q0 -68 -8 -134t-33 -119t-70 -85.5
t-119 -32.5t-119 32.5t-70 85.5t-33 119t-8 134q0 67 8 133.5t33 119.5t70 85.5t119 32.5zM200 908q0 -14 7 -26t18 -21t24.5 -14.5t27.5 -5.5q13 0 27 5.5t25 14.5t18 21t7 26h48q0 -15 -5.5 -37t-19.5 -42t-38.5 -34t-61.5 -14q-38 0 -62 14t-38 34t-19.5 42t-5.5 37h48z
" />
    <glyph glyph-name="Ohungarumlaut" unicode="&#x150;" horiz-adv-x="556" 
d="M278 656q-46 0 -73 -23.5t-41.5 -64t-19 -95t-4.5 -116.5t4.5 -116.5t19 -95t41.5 -64t73 -23.5t73 23.5t41.5 64t19 95t4.5 116.5t-4.5 116.5t-19 95t-41.5 64t-73 23.5zM278 728q74 0 119 -32.5t70 -85.5t33 -119.5t8 -133.5q0 -68 -8 -134t-33 -119t-70 -85.5
t-119 -32.5t-119 32.5t-70 85.5t-33 119t-8 134q0 67 8 133.5t33 119.5t70 85.5t119 32.5zM398 915h98l-108 -142h-60zM234 915h98l-108 -142h-60z" />
    <glyph glyph-name="Racute" unicode="&#x154;" horiz-adv-x="519" 
d="M146 390h87q19 0 44.5 2t48.5 15t38.5 41t15.5 80q0 54 -33 84t-96 30h-105v-252zM58 714h231q85 0 134 -47t49 -132q0 -29 -5.5 -58t-18.5 -53.5t-34 -43t-52 -25.5v-2q47 -5 72.5 -39t28.5 -80l6 -122q1 -30 4 -49t8 -31.5t11.5 -19.5t14.5 -12h-106q-6 6 -10 18
t-7 26.5t-4.5 30t-2.5 28.5l-6 111q-3 37 -13.5 57.5t-25.5 31t-32.5 13t-34.5 2.5h-119v-318h-88v714zM266 915h98l-108 -142h-60z" />
    <glyph glyph-name="Rcaron" unicode="&#x158;" horiz-adv-x="519" 
d="M146 390h87q19 0 44.5 2t48.5 15t38.5 41t15.5 80q0 54 -33 84t-96 30h-105v-252zM58 714h231q85 0 134 -47t49 -132q0 -29 -5.5 -58t-18.5 -53.5t-34 -43t-52 -25.5v-2q47 -5 72.5 -39t28.5 -80l6 -122q1 -30 4 -49t8 -31.5t11.5 -19.5t14.5 -12h-106q-6 6 -10 18
t-7 26.5t-4.5 30t-2.5 28.5l-6 111q-3 37 -13.5 57.5t-25.5 31t-32.5 13t-34.5 2.5h-119v-318h-88v714zM279 771h-77l-100 142h78l61 -88l61 88h78z" />
    <glyph glyph-name="Rcommaaccent" unicode="&#x156;" horiz-adv-x="519" 
d="M146 390h87q19 0 44.5 2t48.5 15t38.5 41t15.5 80q0 54 -33 84t-96 30h-105v-252zM58 714h231q85 0 134 -47t49 -132q0 -29 -5.5 -58t-18.5 -53.5t-34 -43t-52 -25.5v-2q47 -5 72.5 -39t28.5 -80l6 -122q1 -30 4 -49t8 -31.5t11.5 -19.5t14.5 -12h-106q-6 6 -10 18
t-7 26.5t-4.5 30t-2.5 28.5l-6 111q-3 37 -13.5 57.5t-25.5 31t-32.5 13t-34.5 2.5h-119v-318h-88v714zM219 -50h83v-80q0 -41 -19.5 -59t-58.5 -21v26q13 4 22.5 11t11.5 32h-39v91z" />
    <glyph glyph-name="Sacute" unicode="&#x15a;" horiz-adv-x="500" 
d="M361 529q0 28 -5.5 51.5t-18.5 40t-34.5 26t-52.5 9.5q-57 0 -87.5 -29.5t-30.5 -86.5q0 -50 25 -77t62.5 -43t81 -28.5t81 -33.5t62.5 -58t25 -102q0 -62 -20.5 -103t-52.5 -65t-71.5 -34t-77.5 -10q-63 0 -104.5 16t-66 46t-35 74.5t-10.5 101.5h88q0 -30 3 -59.5
t16 -53.5t40 -38.5t75 -14.5q26 0 49 9t39.5 25.5t26 39.5t9.5 52q0 38 -14.5 62t-38 40.5t-54 27l-62 21.5t-62 24.5t-54 35t-38 54.5t-14.5 82q0 25 7 58.5t29.5 64.5t63.5 52.5t109 21.5q103 0 150.5 -49.5t49.5 -149.5h-88zM286 921h98l-108 -142h-60z" />
    <glyph glyph-name="Scircumflex" unicode="&#x15c;" horiz-adv-x="500" 
d="M361 529q0 28 -5.5 51.5t-18.5 40t-34.5 26t-52.5 9.5q-57 0 -87.5 -29.5t-30.5 -86.5q0 -50 25 -77t62.5 -43t81 -28.5t81 -33.5t62.5 -58t25 -102q0 -62 -20.5 -103t-52.5 -65t-71.5 -34t-77.5 -10q-63 0 -104.5 16t-66 46t-35 74.5t-10.5 101.5h88q0 -30 3 -59.5
t16 -53.5t40 -38.5t75 -14.5q26 0 49 9t39.5 25.5t26 39.5t9.5 52q0 38 -14.5 62t-38 40.5t-54 27l-62 21.5t-62 24.5t-54 35t-38 54.5t-14.5 82q0 25 7 58.5t29.5 64.5t63.5 52.5t109 21.5q103 0 150.5 -49.5t49.5 -149.5h-88zM216 915h77l100 -142h-78l-61 88l-61 -88h-78
z" />
    <glyph glyph-name="Scedilla" unicode="&#x15e;" horiz-adv-x="500" 
d="M154 -156q1 0 8.5 -2t17.5 -4l20.5 -4t17.5 -2q31 0 43 12t12 27q0 17 -14.5 27t-32.5 10q-13 0 -23.5 -2.5t-16.5 -4.5l-15 18l49 68q-45 3 -78 15q-62 24 -86.5 79.5t-24.5 142.5h88q0 -30 3 -59.5t16 -53.5t40 -38.5t75 -14.5q26 0 49 9t39.5 25.5t26 39.5t9.5 52
q0 38 -14.5 62t-38 40.5t-54 27l-62 21.5t-62 24.5t-54 35t-38 54.5t-14.5 82q0 25 7 58.5t29.5 64.5t63.5 52.5t109 21.5q103 0 150.5 -49.5t49.5 -149.5h-88q0 28 -5.5 51.5t-18.5 40t-34.5 26t-52.5 9.5q-57 0 -87.5 -29.5t-30.5 -86.5q0 -50 25 -77t62.5 -43t81 -28.5
t81 -33.5t62.5 -58t25 -102q0 -46 -12 -80.5t-32 -59.5t-46 -40t-55 -22q-16 -4 -31 -6.5t-31 -3.5l-29 -40l2 -2q8 2 14 3t16 1q13 0 27 -3.5t26 -12t19.5 -22.5t7.5 -36q0 -18 -9 -33t-23.5 -26.5t-34 -18t-40.5 -6.5q-28 0 -55 6t-44 14z" />
    <glyph glyph-name="Scedilla" unicode="&#xf6c1;" horiz-adv-x="500" 
d="M154 -156q1 0 8.5 -2t17.5 -4l20.5 -4t17.5 -2q31 0 43 12t12 27q0 17 -14.5 27t-32.5 10q-13 0 -23.5 -2.5t-16.5 -4.5l-15 18l49 68q-45 3 -78 15q-62 24 -86.5 79.5t-24.5 142.5h88q0 -30 3 -59.5t16 -53.5t40 -38.5t75 -14.5q26 0 49 9t39.5 25.5t26 39.5t9.5 52
q0 38 -14.5 62t-38 40.5t-54 27l-62 21.5t-62 24.5t-54 35t-38 54.5t-14.5 82q0 25 7 58.5t29.5 64.5t63.5 52.5t109 21.5q103 0 150.5 -49.5t49.5 -149.5h-88q0 28 -5.5 51.5t-18.5 40t-34.5 26t-52.5 9.5q-57 0 -87.5 -29.5t-30.5 -86.5q0 -50 25 -77t62.5 -43t81 -28.5
t81 -33.5t62.5 -58t25 -102q0 -46 -12 -80.5t-32 -59.5t-46 -40t-55 -22q-16 -4 -31 -6.5t-31 -3.5l-29 -40l2 -2q8 2 14 3t16 1q13 0 27 -3.5t26 -12t19.5 -22.5t7.5 -36q0 -18 -9 -33t-23.5 -26.5t-34 -18t-40.5 -6.5q-28 0 -55 6t-44 14z" />
    <glyph glyph-name="Scommaaccent" unicode="&#x218;" horiz-adv-x="500" 
d="M361 529q0 28 -5.5 51.5t-18.5 40t-34.5 26t-52.5 9.5q-57 0 -87.5 -29.5t-30.5 -86.5q0 -50 25 -77t62.5 -43t81 -28.5t81 -33.5t62.5 -58t25 -102q0 -62 -20.5 -103t-52.5 -65t-71.5 -34t-77.5 -10q-63 0 -104.5 16t-66 46t-35 74.5t-10.5 101.5h88q0 -30 3 -59.5
t16 -53.5t40 -38.5t75 -14.5q26 0 49 9t39.5 25.5t26 39.5t9.5 52q0 38 -14.5 62t-38 40.5t-54 27l-62 21.5t-62 24.5t-54 35t-38 54.5t-14.5 82q0 25 7 58.5t29.5 64.5t63.5 52.5t109 21.5q103 0 150.5 -49.5t49.5 -149.5h-88zM207 -50h83v-80q0 -41 -19.5 -59t-58.5 -21
v26q13 4 22.5 11t11.5 32h-39v91z" />
    <glyph glyph-name="Tcaron" unicode="&#x164;" 
d="M275 0h-88v636h-179v78h447v-78h-180v-636zM269 773h-77l-100 142h78l61 -88l61 88h78z" />
    <glyph glyph-name="Tcommaaccent" unicode="&#x162;" 
d="M275 0h-88v636h-179v78h447v-78h-180v-636zM189 -50h83v-80q0 -41 -19.5 -59t-58.5 -21v26q13 4 22.5 11t11.5 32h-39v91z" />
    <glyph glyph-name="Tbar" unicode="&#x166;" 
d="M275 0h-88v437h-114v49h114v150h-179v78h447v-78h-180v-150h112v-49h-112v-437z" />
    <glyph glyph-name="Utilde" unicode="&#x168;" horiz-adv-x="519" 
d="M50 714h88v-502q0 -79 27.5 -116.5t93.5 -37.5q70 0 96 39.5t26 114.5v502h88v-502q0 -103 -52.5 -164.5t-157.5 -61.5q-109 0 -159 57t-50 169v502zM407 903q0 -19 -5.5 -38.5t-16 -35.5t-27 -26.5t-37.5 -10.5q-16 0 -33 6t-32.5 13l-28.5 13t-21 6q-20 0 -28.5 -15.5
t-10.5 -29.5h-54q0 22 7 42t19.5 35.5t29.5 24.5t37 9q14 0 29.5 -5.5t30.5 -13.5l28.5 -13t23.5 -6q19 0 25.5 15.5t9.5 29.5h54z" />
    <glyph glyph-name="Umacron" unicode="&#x16a;" horiz-adv-x="519" 
d="M50 714h88v-502q0 -79 27.5 -116.5t93.5 -37.5q70 0 96 39.5t26 114.5v502h88v-502q0 -103 -52.5 -164.5t-157.5 -61.5q-109 0 -159 57t-50 169v502zM128 871h264v-54h-264v54z" />
    <glyph glyph-name="Ubreve" unicode="&#x16c;" horiz-adv-x="519" 
d="M50 714h88v-502q0 -79 27.5 -116.5t93.5 -37.5q70 0 96 39.5t26 114.5v502h88v-502q0 -103 -52.5 -164.5t-157.5 -61.5q-109 0 -159 57t-50 169v502zM183 908q0 -14 7 -26t18 -21t24.5 -14.5t27.5 -5.5q13 0 27 5.5t25 14.5t18 21t7 26h48q0 -15 -5.5 -37t-19.5 -42
t-38.5 -34t-61.5 -14q-38 0 -62 14t-38 34t-19.5 42t-5.5 37h48z" />
    <glyph glyph-name="Uring" unicode="&#x16e;" horiz-adv-x="519" 
d="M50 714h88v-502q0 -79 27.5 -116.5t93.5 -37.5q70 0 96 39.5t26 114.5v502h88v-502q0 -103 -52.5 -164.5t-157.5 -61.5q-109 0 -159 57t-50 169v502zM203 837q0 -23 17 -40t40 -17t40 17t17 40t-17 40t-40 17t-40 -17t-17 -40zM161 837q0 42 28.5 70.5t70.5 28.5
t70.5 -28.5t28.5 -70.5t-28.5 -70.5t-70.5 -28.5t-70.5 28.5t-28.5 70.5z" />
    <glyph glyph-name="Uhungarumlaut" unicode="&#x170;" horiz-adv-x="519" 
d="M50 714h88v-502q0 -79 27.5 -116.5t93.5 -37.5q70 0 96 39.5t26 114.5v502h88v-502q0 -103 -52.5 -164.5t-157.5 -61.5q-109 0 -159 57t-50 169v502zM380 915h98l-108 -142h-60zM216 915h98l-108 -142h-60z" />
    <glyph glyph-name="Uogonek" unicode="&#x172;" horiz-adv-x="519" 
d="M50 714h88v-502q0 -79 27.5 -116.5t93.5 -37.5q70 0 96 39.5t26 114.5v502h88v-502q0 -103 -53 -165q-34 -40 -95 -54l-23.5 -18.5t-18.5 -16.5q-32 -29 -41.5 -47t-9.5 -36q0 -38 40 -38q20 0 34.5 4t31.5 12l18 -35q-25 -15 -52.5 -21.5t-49.5 -6.5q-49 0 -71.5 21
t-22.5 57q0 65 95 118q-101 1 -151 57q-50 59 -50 169v502z" />
    <glyph glyph-name="Wcircumflex" unicode="&#x174;" horiz-adv-x="722" 
d="M8 714h88l109 -584h2l101 584h106l101 -584h2l109 584h88l-147 -714h-107l-98 578h-2l-103 -578h-107zM324 915h77l100 -142h-78l-61 88l-61 -88h-78z" />
    <glyph glyph-name="Ycircumflex" unicode="&#x176;" horiz-adv-x="462" 
d="M-2 714h97l136 -334l141 334h92l-189 -434v-280h-88v280zM193 915h77l100 -142h-78l-61 88l-61 -88h-78z" />
    <glyph glyph-name="Zacute" unicode="&#x179;" 
d="M23 74l321 562h-303v78h395v-81l-321 -555h325v-78h-417v74zM272 915h98l-108 -142h-60z" />
    <glyph glyph-name="Zdotaccent" unicode="&#x17b;" 
d="M23 74l321 562h-303v78h395v-81l-321 -555h325v-78h-417v74zM194 895h78v-101h-78v101z" />
    <glyph glyph-name="amacron" unicode="&#x101;" horiz-adv-x="444" 
d="M301 292q-12 -12 -30.5 -20t-39 -14.5l-40 -13t-33.5 -15.5q-20 -13 -30.5 -31.5t-10.5 -53.5q0 -42 16.5 -67t59.5 -25q21 0 40.5 8t34.5 22t24 32.5t9 39.5v138zM42 374q0 91 42 133.5t138 42.5q61 0 94 -16t48.5 -40t18 -50.5t2.5 -47.5v-299q0 -17 3 -30t23 -13
q8 0 12.5 1.5t7.5 3.5v-60q-5 -1 -19 -3t-30 -2q-12 0 -24.5 1t-24 7.5t-19 20.5t-8.5 40h-2q-20 -36 -55.5 -56.5t-73.5 -20.5q-75 0 -110.5 42t-35.5 114q0 57 24.5 94.5t76.5 53.5l113 34q23 7 35.5 14.5t18 16.5t6.5 21t1 29q0 79 -86 79q-35 0 -53.5 -13.5t-27 -31.5
t-10 -35.5t-1.5 -24.5v-5h-84zM92 707h264v-54h-264v54z" />
    <glyph glyph-name="abreve" unicode="&#x103;" horiz-adv-x="444" 
d="M301 292q-12 -12 -30.5 -20t-39 -14.5l-40 -13t-33.5 -15.5q-20 -13 -30.5 -31.5t-10.5 -53.5q0 -42 16.5 -67t59.5 -25q21 0 40.5 8t34.5 22t24 32.5t9 39.5v138zM42 374q0 91 42 133.5t138 42.5q61 0 94 -16t48.5 -40t18 -50.5t2.5 -47.5v-299q0 -17 3 -30t23 -13
q8 0 12.5 1.5t7.5 3.5v-60q-5 -1 -19 -3t-30 -2q-12 0 -24.5 1t-24 7.5t-19 20.5t-8.5 40h-2q-20 -36 -55.5 -56.5t-73.5 -20.5q-75 0 -110.5 42t-35.5 114q0 57 24.5 94.5t76.5 53.5l113 34q23 7 35.5 14.5t18 16.5t6.5 21t1 29q0 79 -86 79q-35 0 -53.5 -13.5t-27 -31.5
t-10 -35.5t-1.5 -24.5v-5h-84zM144 744q0 -14 7 -26t18 -21t24.5 -14.5t27.5 -5.5q13 0 27 5.5t25 14.5t18 21t7 26h48q0 -15 -5.5 -37t-19.5 -42t-38.5 -34t-61.5 -14q-38 0 -62 14t-38 34t-19.5 42t-5.5 37h48z" />
    <glyph glyph-name="aogonek" unicode="&#x105;" horiz-adv-x="444" 
d="M42 374q0 91 42 133.5t138 42.5q61 0 94 -16t48.5 -40t18 -50.5t2.5 -47.5v-299q0 -17 3 -30t23 -13q8 0 12.5 1.5t7.5 3.5v-60q-4 -1 -19 -3l-8 -1q-29 -21 -46 -37q-32 -29 -41.5 -47t-9.5 -36q0 -38 40 -38q20 0 34.5 4t31.5 12l18 -35q-25 -15 -52.5 -21.5
t-49.5 -6.5q-49 0 -71.5 21t-22.5 57q0 73 115 128q-10 2 -17 6q-10 7 -18 21t-9 40h-2q-20 -36 -55.5 -56.5t-73.5 -20.5q-75 0 -110.5 42t-35.5 114q0 57 24.5 94.5t76.5 53.5l113 34q23 7 35.5 14.5t18 16.5t6.5 21t1 29q0 79 -86 79q-35 0 -53.5 -13.5t-27 -31.5
t-10 -35.5t-1.5 -24.5v-5h-84zM301 292q-12 -12 -30.5 -20t-39 -14.5l-40 -13t-33.5 -15.5q-20 -13 -30.5 -31.5t-10.5 -53.5q0 -42 16.5 -67t59.5 -25q21 0 40.5 8t34.5 22t24 32.5t9 39.5v138z" />
    <glyph glyph-name="cacute" unicode="&#x107;" horiz-adv-x="426" 
d="M310 373q0 19 -4.5 39t-14 36t-26 26t-40.5 10q-20 0 -38.5 -7t-33.5 -30.5t-24 -67.5t-9 -117q0 -26 1.5 -62t11.5 -69t30.5 -56t58.5 -23q27 0 44 13t27 32.5t13.5 43t3.5 45.5h84q0 -32 -8.5 -67t-29 -64.5t-54.5 -49t-84 -19.5q-99 0 -142.5 68t-43.5 207
q0 50 6.5 101.5t27 93t58 68t99.5 26.5q55 0 88.5 -19t52 -46.5t24.5 -58t6 -53.5h-84zM264 751h98l-108 -142h-60z" />
    <glyph glyph-name="ccircumflex" unicode="&#x109;" horiz-adv-x="426" 
d="M310 373q0 19 -4.5 39t-14 36t-26 26t-40.5 10q-20 0 -38.5 -7t-33.5 -30.5t-24 -67.5t-9 -117q0 -26 1.5 -62t11.5 -69t30.5 -56t58.5 -23q27 0 44 13t27 32.5t13.5 43t3.5 45.5h84q0 -32 -8.5 -67t-29 -64.5t-54.5 -49t-84 -19.5q-99 0 -142.5 68t-43.5 207
q0 50 6.5 101.5t27 93t58 68t99.5 26.5q55 0 88.5 -19t52 -46.5t24.5 -58t6 -53.5h-84zM188 751h77l100 -142h-78l-61 88l-61 -88h-78z" />
    <glyph glyph-name="ccaron" unicode="&#x10d;" horiz-adv-x="426" 
d="M310 373q0 19 -4.5 39t-14 36t-26 26t-40.5 10q-20 0 -38.5 -7t-33.5 -30.5t-24 -67.5t-9 -117q0 -26 1.5 -62t11.5 -69t30.5 -56t58.5 -23q27 0 44 13t27 32.5t13.5 43t3.5 45.5h84q0 -32 -8.5 -67t-29 -64.5t-54.5 -49t-84 -19.5q-99 0 -142.5 68t-43.5 207
q0 50 6.5 101.5t27 93t58 68t99.5 26.5q55 0 88.5 -19t52 -46.5t24.5 -58t6 -53.5h-84zM258 609h-77l-100 142h78l61 -88l61 88h78z" />
    <glyph glyph-name="cdotaccent" unicode="&#x10b;" horiz-adv-x="426" 
d="M310 373q0 19 -4.5 39t-14 36t-26 26t-40.5 10q-20 0 -38.5 -7t-33.5 -30.5t-24 -67.5t-9 -117q0 -26 1.5 -62t11.5 -69t30.5 -56t58.5 -23q27 0 44 13t27 32.5t13.5 43t3.5 45.5h84q0 -32 -8.5 -67t-29 -64.5t-54.5 -49t-84 -19.5q-99 0 -142.5 68t-43.5 207
q0 50 6.5 101.5t27 93t58 68t99.5 26.5q55 0 88.5 -19t52 -46.5t24.5 -58t6 -53.5h-84zM186 731h78v-101h-78v101z" />
    <glyph glyph-name="dcaron" unicode="&#x10f;" horiz-adv-x="524" 
d="M408 0h-80v66h-2q-4 -15 -14.5 -29.5t-26 -25.5t-34.5 -18t-41 -7q-48 0 -81 20.5t-54 57.5t-30.5 89t-9.5 115q0 42 5 91.5t22.5 91.5t51 70.5t90.5 28.5q36 0 70 -20t48 -55h2v239h84v-714zM123 268q0 -48 4.5 -87t15.5 -66t30 -42t48 -15q34 0 55.5 15.5t33 43.5
t15.5 66.5t4 84.5q0 39 -4 76.5t-16 67.5t-33 48t-55 18q-29 0 -48 -15t-30 -42t-15.5 -66t-4.5 -87zM477 714h87l-59 -142h-54z" />
    <glyph glyph-name="dcroat" unicode="&#x111;" horiz-adv-x="478" 
d="M408 0h-80v66h-2q-4 -15 -14.5 -29.5t-26 -25.5t-34.5 -18t-41 -7q-48 0 -81 20.5t-54 57.5t-30.5 89t-9.5 115q0 42 5 91.5t22.5 91.5t51 70.5t90.5 28.5q36 0 70 -20t48 -55h2v116h-102v49h102v74h84v-74h78v-49h-78v-591zM123 268q0 -48 4.5 -87t15.5 -66t30 -42
t48 -15q34 0 55.5 15.5t33 43.5t15.5 66.5t4 84.5q0 39 -4 76.5t-16 67.5t-33 48t-55 18q-29 0 -48 -15t-30 -42t-15.5 -66t-4.5 -87z" />
    <glyph glyph-name="ecaron" unicode="&#x11b;" horiz-adv-x="444" 
d="M125 258q0 -31 1.5 -67t11.5 -67t30.5 -51.5t59.5 -20.5q30 0 48 13.5t27.5 33t12.5 41t3 36.5h84q0 -21 -7.5 -53.5t-27.5 -63t-55 -52t-90 -21.5q-99 0 -142.5 68t-43.5 207q0 50 6.5 101.5t27 93t58 68t99.5 26.5q61 0 97 -24t54 -61.5t23 -83.5t5 -89v-34h-282z
M319 324v29q0 22 -4 45.5t-14.5 42.5t-28.5 31t-46 12q-33 0 -52.5 -17.5t-29.5 -40.5t-13 -46.5t-3 -35.5v-20h191zM266 609h-77l-100 142h78l61 -88l61 88h78z" />
    <glyph glyph-name="emacron" unicode="&#x113;" horiz-adv-x="444" 
d="M125 258q0 -31 1.5 -67t11.5 -67t30.5 -51.5t59.5 -20.5q30 0 48 13.5t27.5 33t12.5 41t3 36.5h84q0 -21 -7.5 -53.5t-27.5 -63t-55 -52t-90 -21.5q-99 0 -142.5 68t-43.5 207q0 50 6.5 101.5t27 93t58 68t99.5 26.5q61 0 97 -24t54 -61.5t23 -83.5t5 -89v-34h-282z
M319 324v29q0 22 -4 45.5t-14.5 42.5t-28.5 31t-46 12q-33 0 -52.5 -17.5t-29.5 -40.5t-13 -46.5t-3 -35.5v-20h191zM97 707h264v-54h-264v54z" />
    <glyph glyph-name="ebreve" unicode="&#x115;" horiz-adv-x="444" 
d="M125 258q0 -31 1.5 -67t11.5 -67t30.5 -51.5t59.5 -20.5q30 0 48 13.5t27.5 33t12.5 41t3 36.5h84q0 -21 -7.5 -53.5t-27.5 -63t-55 -52t-90 -21.5q-99 0 -142.5 68t-43.5 207q0 50 6.5 101.5t27 93t58 68t99.5 26.5q61 0 97 -24t54 -61.5t23 -83.5t5 -89v-34h-282z
M319 324v29q0 22 -4 45.5t-14.5 42.5t-28.5 31t-46 12q-33 0 -52.5 -17.5t-29.5 -40.5t-13 -46.5t-3 -35.5v-20h191zM153 744q0 -14 7 -26t18 -21t24.5 -14.5t27.5 -5.5q13 0 27 5.5t25 14.5t18 21t7 26h48q0 -15 -5.5 -37t-19.5 -42t-38.5 -34t-61.5 -14q-38 0 -62 14
t-38 34t-19.5 42t-5.5 37h48z" />
    <glyph glyph-name="edotaccent" unicode="&#x117;" horiz-adv-x="444" 
d="M125 258q0 -31 1.5 -67t11.5 -67t30.5 -51.5t59.5 -20.5q30 0 48 13.5t27.5 33t12.5 41t3 36.5h84q0 -21 -7.5 -53.5t-27.5 -63t-55 -52t-90 -21.5q-99 0 -142.5 68t-43.5 207q0 50 6.5 101.5t27 93t58 68t99.5 26.5q61 0 97 -24t54 -61.5t23 -83.5t5 -89v-34h-282z
M319 324v29q0 22 -4 45.5t-14.5 42.5t-28.5 31t-46 12q-33 0 -52.5 -17.5t-29.5 -40.5t-13 -46.5t-3 -35.5v-20h191zM189 731h78v-101h-78v101z" />
    <glyph glyph-name="eogonek" unicode="&#x119;" horiz-adv-x="444" 
d="M125 258q0 -31 1.5 -67t11.5 -67t30.5 -51.5t59.5 -20.5q30 0 48 13.5t27.5 33t12.5 41t3 36.5h84q0 -17 -4 -39.5t-14.5 -45.5t-28 -45.5t-43.5 -38.5q-5 -2 -9.5 -4.5t-9.5 -4.5q-16 -11 -28.5 -21t-21.5 -18q-27 -27 -37.5 -45.5t-10.5 -38.5q0 -38 40 -38
q20 0 34.5 4t31.5 12l18 -35q-25 -15 -52.5 -21.5t-49.5 -6.5q-49 0 -71.5 21t-22.5 57q0 64 93 118q-95 2 -137 68q-43 67 -43 207q0 50 6.5 101.5t27 93t58 68t99.5 26.5q61 0 97 -24t54 -61.5t23 -83.5t5 -89v-34h-282zM319 324v29q0 22 -4 45.5t-14.5 42.5t-28.5 31
t-46 12q-33 0 -52.5 -17.5t-29.5 -40.5t-13 -46.5t-3 -35.5v-20h191z" />
    <glyph glyph-name="gcircumflex" unicode="&#x11d;" 
d="M408 34q0 -60 -13.5 -101.5t-37.5 -67.5t-57.5 -37.5t-73.5 -11.5q-12 0 -39.5 2t-56 14.5t-52 40t-28.5 77.5h84q3 -37 28 -52.5t58 -15.5q40 0 61.5 13.5t31 32.5t10.5 39.5t1 34.5v70h-2q-14 -34 -47.5 -53t-73.5 -19q-39 0 -66.5 15t-46 39t-29 53.5t-16 59.5
t-7 56.5t-1.5 44.5q0 54 8 105t28.5 90.5t54 63t84.5 23.5q22 0 41.5 -7t34.5 -18t25.5 -26t14.5 -31h2v68h80v-502zM221 478q-29 0 -48 -15t-30 -42t-15.5 -66t-4.5 -87q0 -33 3.5 -67.5t13.5 -63t29 -47t51 -18.5q34 0 55.5 15t33.5 41.5t16 62.5t4 77q0 39 -4 76.5
t-16 67.5t-33 48t-55 18zM199 751h77l100 -142h-78l-61 88l-61 -88h-78z" />
    <glyph glyph-name="gbreve" unicode="&#x11f;" 
d="M408 34q0 -60 -13.5 -101.5t-37.5 -67.5t-57.5 -37.5t-73.5 -11.5q-12 0 -39.5 2t-56 14.5t-52 40t-28.5 77.5h84q3 -37 28 -52.5t58 -15.5q40 0 61.5 13.5t31 32.5t10.5 39.5t1 34.5v70h-2q-14 -34 -47.5 -53t-73.5 -19q-39 0 -66.5 15t-46 39t-29 53.5t-16 59.5
t-7 56.5t-1.5 44.5q0 54 8 105t28.5 90.5t54 63t84.5 23.5q22 0 41.5 -7t34.5 -18t25.5 -26t14.5 -31h2v68h80v-502zM221 478q-29 0 -48 -15t-30 -42t-15.5 -66t-4.5 -87q0 -33 3.5 -67.5t13.5 -63t29 -47t51 -18.5q34 0 55.5 15t33.5 41.5t16 62.5t4 77q0 39 -4 76.5
t-16 67.5t-33 48t-55 18zM166 744q0 -14 7 -26t18 -21t24.5 -14.5t27.5 -5.5q13 0 27 5.5t25 14.5t18 21t7 26h48q0 -15 -5.5 -37t-19.5 -42t-38.5 -34t-61.5 -14q-38 0 -62 14t-38 34t-19.5 42t-5.5 37h48z" />
    <glyph glyph-name="gdotaccent" unicode="&#x121;" 
d="M408 34q0 -60 -13.5 -101.5t-37.5 -67.5t-57.5 -37.5t-73.5 -11.5q-12 0 -39.5 2t-56 14.5t-52 40t-28.5 77.5h84q3 -37 28 -52.5t58 -15.5q40 0 61.5 13.5t31 32.5t10.5 39.5t1 34.5v70h-2q-14 -34 -47.5 -53t-73.5 -19q-39 0 -66.5 15t-46 39t-29 53.5t-16 59.5
t-7 56.5t-1.5 44.5q0 54 8 105t28.5 90.5t54 63t84.5 23.5q22 0 41.5 -7t34.5 -18t25.5 -26t14.5 -31h2v68h80v-502zM221 478q-29 0 -48 -15t-30 -42t-15.5 -66t-4.5 -87q0 -33 3.5 -67.5t13.5 -63t29 -47t51 -18.5q34 0 55.5 15t33.5 41.5t16 62.5t4 77q0 39 -4 76.5
t-16 67.5t-33 48t-55 18zM200 731h78v-101h-78v101z" />
    <glyph glyph-name="gcommaaccent" unicode="&#x123;" 
d="M408 34q0 -60 -13.5 -101.5t-37.5 -67.5t-57.5 -37.5t-73.5 -11.5q-12 0 -39.5 2t-56 14.5t-52 40t-28.5 77.5h84q3 -37 28 -52.5t58 -15.5q40 0 61.5 13.5t31 32.5t10.5 39.5t1 34.5v70h-2q-14 -34 -47.5 -53t-73.5 -19q-39 0 -66.5 15t-46 39t-29 53.5t-16 59.5
t-7 56.5t-1.5 44.5q0 54 8 105t28.5 90.5t54 63t84.5 23.5q22 0 41.5 -7t34.5 -18t25.5 -26t14.5 -31h2v68h80v-502zM221 478q-29 0 -48 -15t-30 -42t-15.5 -66t-4.5 -87q0 -33 3.5 -67.5t13.5 -63t29 -47t51 -18.5q34 0 55.5 15t33.5 41.5t16 62.5t4 77q0 39 -4 76.5
t-16 67.5t-33 48t-55 18zM270 623h-83v85q0 69 78 75v-26q-13 -4 -22.5 -11t-11.5 -32h39v-91z" />
    <glyph glyph-name="hcircumflex" unicode="&#x125;" 
d="M55 714h84v-239h2q8 16 22.5 30t32 24t37 15.5t37.5 5.5q52 0 80 -17.5t41 -43.5t15 -55.5t2 -53.5v-380h-84v370q0 15 -1.5 34t-9.5 35.5t-24 27.5t-44 11q-17 0 -35.5 -6t-34.5 -19t-26 -33.5t-10 -49.5v-370h-84v714zM194 915h77l100 -142h-78l-61 88l-61 -88h-78z
" />
    <glyph glyph-name="hbar" unicode="&#x127;" horiz-adv-x="478" 
d="M-3 640h73v74h84v-74h107v-49h-107v-116h2q8 16 22.5 30t32 24t37 15.5t37.5 5.5q52 0 80 -17.5t41 -43.5t15 -55.5t2 -53.5v-380h-84v370q0 15 -1.5 34t-9.5 35.5t-24 27.5t-44 11q-17 0 -35.5 -6t-34.5 -19t-26 -33.5t-10 -49.5v-370h-84v591h-73v49z" />
    <glyph glyph-name="itilde" unicode="&#x129;" horiz-adv-x="204" 
d="M60 536h84v-536h-84v536zM249 739q0 -19 -5.5 -38.5t-16 -35.5t-27 -26.5t-37.5 -10.5q-16 0 -33 6t-32.5 13l-28.5 13t-21 6q-20 0 -28.5 -15.5t-10.5 -29.5h-54q0 22 7 42t19.5 35.5t29.5 24.5t37 9q14 0 29.5 -5.5t30.5 -13.5l28.5 -13t23.5 -6q19 0 25.5 15.5
t9.5 29.5h54z" />
    <glyph glyph-name="imacron" unicode="&#x12b;" horiz-adv-x="204" 
d="M60 536h84v-536h-84v536zM-30 707h264v-54h-264v54z" />
    <glyph glyph-name="iogonek" unicode="&#x12f;" horiz-adv-x="204" 
d="M144 0q-29 -24 -46.5 -42t-27 -33t-13 -27t-3.5 -23q0 -38 35 -38q17 0 29.5 4t27.5 12l15 -35q-22 -15 -45.5 -21.5t-42.5 -6.5q-42 0 -61.5 21t-19.5 57q0 74 106 132h-38v536h84v-536zM60 714h84v-96h-84v96z" />
    <glyph glyph-name="dotlessj" unicode="&#xf6be;" horiz-adv-x="204" 
d="M144 -52q0 -66 -29.5 -99t-98.5 -33q-10 0 -19.5 1l-19.5 2v72l15.5 -2t15.5 -1q19 0 30 7t15.5 19t5.5 28.5t1 35.5v558h84v-588z" />
    <glyph glyph-name="dotlessj" unicode="&#xfb0f;" horiz-adv-x="204" 
d="M144 -52q0 -66 -29.5 -99t-98.5 -33q-10 0 -19.5 1l-19.5 2v72l15.5 -2t15.5 -1q19 0 30 7t15.5 19t5.5 28.5t1 35.5v558h84v-588z" />
    <glyph glyph-name="jcircumflex" unicode="&#x135;" horiz-adv-x="204" 
d="M144 -52q0 -66 -29.5 -99t-98.5 -33q-10 0 -19.5 1l-19.5 2v72l15.5 -2t15.5 -1q19 0 30 7t15.5 19t5.5 28.5t1 35.5v558h84v-588zM61 751h77l100 -142h-78l-61 88l-61 -88h-78z" />
    <glyph glyph-name="kcommaaccent" unicode="&#x137;" horiz-adv-x="444" 
d="M455 0h-98l-149 265l-69 -84v-181h-84v714h84v-425h2l188 247h98l-163 -202zM192 -50h83v-80q0 -41 -19.5 -59t-58.5 -21v26q13 4 22.5 11t11.5 32h-39v91z" />
    <glyph glyph-name="lacute" unicode="&#x13a;" horiz-adv-x="204" 
d="M60 714h84v-714h-84v714zM130 915h98l-108 -142h-60z" />
    <glyph glyph-name="lcaron" unicode="&#x13e;" horiz-adv-x="259" 
d="M60 714h84v-714h-84v714zM212 714h87l-59 -142h-54z" />
    <glyph glyph-name="lcommaaccent" unicode="&#x13c;" horiz-adv-x="204" 
d="M60 714h84v-714h-84v714zM61 -50h83v-80q0 -41 -19.5 -59t-58.5 -21v26q13 4 22.5 11t11.5 32h-39v91z" />
    <glyph glyph-name="nacute" unicode="&#x144;" 
d="M55 536h80v-63h2q17 37 54 57t76 20q53 0 81.5 -17.5t42 -43.5t15.5 -55.5t2 -53.5v-380h-84v370q0 15 -1.5 34t-9.5 35.5t-24 27.5t-44 11q-17 0 -35.5 -6t-34.5 -19t-26 -33.5t-10 -49.5v-370h-84v536zM258 751h98l-108 -142h-60z" />
    <glyph glyph-name="ncaron" unicode="&#x148;" 
d="M55 536h80v-63h2q17 37 54 57t76 20q53 0 81.5 -17.5t42 -43.5t15.5 -55.5t2 -53.5v-380h-84v370q0 15 -1.5 34t-9.5 35.5t-24 27.5t-44 11q-17 0 -35.5 -6t-34.5 -19t-26 -33.5t-10 -49.5v-370h-84v536zM268 609h-77l-100 142h78l61 -88l61 88h78z" />
    <glyph glyph-name="ncommaaccent" unicode="&#x146;" 
d="M55 536h80v-63h2q17 37 54 57t76 20q53 0 81.5 -17.5t42 -43.5t15.5 -55.5t2 -53.5v-380h-84v370q0 15 -1.5 34t-9.5 35.5t-24 27.5t-44 11q-17 0 -35.5 -6t-34.5 -19t-26 -33.5t-10 -49.5v-370h-84v536zM190 -50h83v-80q0 -41 -19.5 -59t-58.5 -21v26q13 4 22.5 11
t11.5 32h-39v91z" />
    <glyph glyph-name="napostrophe" unicode="&#x149;" 
d="M55 536h80v-63h2q17 37 54 57t76 20q53 0 81.5 -17.5t42 -43.5t15.5 -55.5t2 -53.5v-380h-84v370q0 15 -1.5 34t-9.5 35.5t-24 27.5t-44 11q-17 0 -35.5 -6t-34.5 -19t-26 -33.5t-10 -49.5v-370h-84v536zM12 805h83v-80q0 -41 -19.5 -59t-58.5 -21v26q13 4 22.5 11
t11.5 32h-39v91z" />
    <glyph glyph-name="omacron" unicode="&#x14d;" horiz-adv-x="444" 
d="M29 268q0 57 8.5 108t30 89.5t59 61.5t95.5 23t95.5 -23t59 -61.5t30 -89.5t8.5 -108t-8.5 -108t-30.5 -89.5t-59 -61.5t-95 -23t-95.5 23t-59 61.5t-30 89.5t-8.5 108zM220 52q33 0 54 17.5t33 47t16 68.5t4 83q0 43 -4 82.5t-15.5 69t-32.5 47t-55 17.5
q-32 0 -52 -17.5t-31.5 -47t-15.5 -69t-4 -82.5q0 -44 4 -83t15 -68.5t31.5 -47t52.5 -17.5zM91 707h264v-54h-264v54z" />
    <glyph glyph-name="obreve" unicode="&#x14f;" horiz-adv-x="444" 
d="M29 268q0 57 8.5 108t30 89.5t59 61.5t95.5 23t95.5 -23t59 -61.5t30 -89.5t8.5 -108t-8.5 -108t-30.5 -89.5t-59 -61.5t-95 -23t-95.5 23t-59 61.5t-30 89.5t-8.5 108zM220 52q33 0 54 17.5t33 47t16 68.5t4 83q0 43 -4 82.5t-15.5 69t-32.5 47t-55 17.5
q-32 0 -52 -17.5t-31.5 -47t-15.5 -69t-4 -82.5q0 -44 4 -83t15 -68.5t31.5 -47t52.5 -17.5zM144 744q0 -14 7 -26t18 -21t24.5 -14.5t27.5 -5.5q13 0 27 5.5t25 14.5t18 21t7 26h48q0 -15 -5.5 -37t-19.5 -42t-38.5 -34t-61.5 -14q-38 0 -62 14t-38 34t-19.5 42t-5.5 37h48
z" />
    <glyph glyph-name="ohungarumlaut" unicode="&#x151;" horiz-adv-x="444" 
d="M29 268q0 57 8.5 108t30 89.5t59 61.5t95.5 23t95.5 -23t59 -61.5t30 -89.5t8.5 -108t-8.5 -108t-30.5 -89.5t-59 -61.5t-95 -23t-95.5 23t-59 61.5t-30 89.5t-8.5 108zM220 52q33 0 54 17.5t33 47t16 68.5t4 83q0 43 -4 82.5t-15.5 69t-32.5 47t-55 17.5
q-32 0 -52 -17.5t-31.5 -47t-15.5 -69t-4 -82.5q0 -44 4 -83t15 -68.5t31.5 -47t52.5 -17.5zM341 751h98l-108 -142h-60zM177 751h98l-108 -142h-60z" />
    <glyph glyph-name="racute" unicode="&#x155;" horiz-adv-x="296" 
d="M55 536h84v-80h2q9 19 19.5 36t24.5 30t31.5 20.5t40.5 7.5q25 0 37 -6v-82l-15.5 2.5t-29.5 1.5q-16 0 -35 -7.5t-35.5 -23t-28 -39.5t-11.5 -57v-339h-84v536zM148 751h98l-108 -142h-60z" />
    <glyph glyph-name="rcommaaccent" unicode="&#x157;" horiz-adv-x="296" 
d="M55 536h84v-80h2q9 19 19.5 36t24.5 30t31.5 20.5t40.5 7.5q25 0 37 -6v-82l-15.5 2.5t-29.5 1.5q-16 0 -35 -7.5t-35.5 -23t-28 -39.5t-11.5 -57v-339h-84v536zM57 -50h83v-80q0 -41 -19.5 -59t-58.5 -21v26q13 4 22.5 11t11.5 32h-39v91z" />
    <glyph glyph-name="rcaron" unicode="&#x159;" horiz-adv-x="296" 
d="M55 536h84v-80h2q9 19 19.5 36t24.5 30t31.5 20.5t40.5 7.5q25 0 37 -6v-82l-15.5 2.5t-29.5 1.5q-16 0 -35 -7.5t-35.5 -23t-28 -39.5t-11.5 -57v-339h-84v536zM203 609h-77l-100 142h78l61 -88l61 88h78z" />
    <glyph glyph-name="sacute" unicode="&#x15b;" horiz-adv-x="407" 
d="M285 379q0 51 -16.5 78t-62.5 27q-10 0 -25 -2.5t-28.5 -10.5t-23.5 -24.5t-10 -44.5q0 -24 11.5 -39t30 -25.5t42 -17.5l48.5 -15q24 -8 47.5 -17.5t42 -26t30 -42t11.5 -65.5q0 -42 -13 -73.5t-36 -52.5t-55 -31.5t-69 -10.5q-68 0 -105.5 22t-55 52.5t-20.5 62.5
t-3 53h84q0 -24 4 -46.5t15 -40t30.5 -27.5t50.5 -10q10 0 25 3t29.5 13t24.5 27t10 46q0 27 -11.5 44.5t-30 29t-42 19.5l-47.5 16t-48 17.5t-42.5 25.5t-30 42t-11.5 67q0 37 13.5 65t37 46.5t54.5 27.5t66 9q58 0 91 -18t49 -44t19.5 -55.5t3.5 -53.5h-84zM243 751h98
l-108 -142h-60z" />
    <glyph glyph-name="scircumflex" unicode="&#x15d;" horiz-adv-x="407" 
d="M285 379q0 51 -16.5 78t-62.5 27q-10 0 -25 -2.5t-28.5 -10.5t-23.5 -24.5t-10 -44.5q0 -24 11.5 -39t30 -25.5t42 -17.5l48.5 -15q24 -8 47.5 -17.5t42 -26t30 -42t11.5 -65.5q0 -42 -13 -73.5t-36 -52.5t-55 -31.5t-69 -10.5q-68 0 -105.5 22t-55 52.5t-20.5 62.5
t-3 53h84q0 -24 4 -46.5t15 -40t30.5 -27.5t50.5 -10q10 0 25 3t29.5 13t24.5 27t10 46q0 27 -11.5 44.5t-30 29t-42 19.5l-47.5 16t-48 17.5t-42.5 25.5t-30 42t-11.5 67q0 37 13.5 65t37 46.5t54.5 27.5t66 9q58 0 91 -18t49 -44t19.5 -55.5t3.5 -53.5h-84zM173 751h77
l100 -142h-78l-61 88l-61 -88h-78z" />
    <glyph glyph-name="scedilla" unicode="&#x15f;" horiz-adv-x="407" 
d="M285 379q0 51 -16.5 78t-62.5 27q-10 0 -25 -2.5t-28.5 -10.5t-23.5 -24.5t-10 -44.5q0 -24 11.5 -39t30 -25.5t42 -17.5l48.5 -15q24 -8 47.5 -17.5t42 -26t30 -42t11.5 -65.5q0 -63 -28 -102.5t-76 -54.5q-14 -5 -29.5 -7.5t-31.5 -3.5l10 14h-42l-9 -12q-46 5 -73 20
q-29 17 -44.5 39t-23 45t-9 45t-1.5 39h84q0 -24 4 -46.5t15 -40t30.5 -27.5t50.5 -10q10 0 25 3t29.5 13t24.5 27t10 46q0 27 -11.5 44.5t-30 29t-42 19.5l-47.5 16t-48 17.5t-42.5 25.5t-30 42t-11.5 67q0 37 13.5 65t37 46.5t54.5 27.5t66 9q58 0 91 -18t49 -44
t19.5 -55.5t3.5 -53.5h-84zM109 -156q1 0 8.5 -2t17.5 -4l20.5 -4t17.5 -2q31 0 43 12t12 27q0 17 -14.5 27t-32.5 10q-13 0 -23.5 -2.5t-16.5 -4.5l-15 18l50 69q8 -1 16 -1.5t17 -0.5h8l-29 -40l2 -2q8 2 14 3t16 1q13 0 27 -3.5t26 -12t19.5 -22.5t7.5 -36q0 -18 -9 -33
t-23.5 -26.5t-34 -18t-40.5 -6.5q-28 0 -55 6t-44 14z" />
    <glyph glyph-name="scedilla" unicode="&#xf6c2;" horiz-adv-x="407" 
d="M285 379q0 51 -16.5 78t-62.5 27q-10 0 -25 -2.5t-28.5 -10.5t-23.5 -24.5t-10 -44.5q0 -24 11.5 -39t30 -25.5t42 -17.5l48.5 -15q24 -8 47.5 -17.5t42 -26t30 -42t11.5 -65.5q0 -63 -28 -102.5t-76 -54.5q-14 -5 -29.5 -7.5t-31.5 -3.5l10 14h-42l-9 -12q-46 5 -73 20
q-29 17 -44.5 39t-23 45t-9 45t-1.5 39h84q0 -24 4 -46.5t15 -40t30.5 -27.5t50.5 -10q10 0 25 3t29.5 13t24.5 27t10 46q0 27 -11.5 44.5t-30 29t-42 19.5l-47.5 16t-48 17.5t-42.5 25.5t-30 42t-11.5 67q0 37 13.5 65t37 46.5t54.5 27.5t66 9q58 0 91 -18t49 -44
t19.5 -55.5t3.5 -53.5h-84zM109 -156q1 0 8.5 -2t17.5 -4l20.5 -4t17.5 -2q31 0 43 12t12 27q0 17 -14.5 27t-32.5 10q-13 0 -23.5 -2.5t-16.5 -4.5l-15 18l50 69q8 -1 16 -1.5t17 -0.5h8l-29 -40l2 -2q8 2 14 3t16 1q13 0 27 -3.5t26 -12t19.5 -22.5t7.5 -36q0 -18 -9 -33
t-23.5 -26.5t-34 -18t-40.5 -6.5q-28 0 -55 6t-44 14z" />
    <glyph glyph-name="scommaaccent" unicode="&#x219;" horiz-adv-x="407" 
d="M285 379q0 51 -16.5 78t-62.5 27q-10 0 -25 -2.5t-28.5 -10.5t-23.5 -24.5t-10 -44.5q0 -24 11.5 -39t30 -25.5t42 -17.5l48.5 -15q24 -8 47.5 -17.5t42 -26t30 -42t11.5 -65.5q0 -42 -13 -73.5t-36 -52.5t-55 -31.5t-69 -10.5q-68 0 -105.5 22t-55 52.5t-20.5 62.5
t-3 53h84q0 -24 4 -46.5t15 -40t30.5 -27.5t50.5 -10q10 0 25 3t29.5 13t24.5 27t10 46q0 27 -11.5 44.5t-30 29t-42 19.5l-47.5 16t-48 17.5t-42.5 25.5t-30 42t-11.5 67q0 37 13.5 65t37 46.5t54.5 27.5t66 9q58 0 91 -18t49 -44t19.5 -55.5t3.5 -53.5h-84zM163 -50h83
v-80q0 -41 -19.5 -59t-58.5 -21v26q13 4 22.5 11t11.5 32h-39v91z" />
    <glyph glyph-name="tcaron" unicode="&#x165;" horiz-adv-x="322" 
d="M271 714h87l-59 -142h-54zM80 692h84v-156h93v-66h-93v-344q0 -32 11 -46t44 -14q14 0 22 1t15 2v-69q-8 -2 -25 -4t-43 -2q-33 0 -54 6.5t-33 20t-16.5 33.5t-4.5 46v370h-78v66h78v156z" />
    <glyph glyph-name="tcommaaccent" unicode="&#x163;" horiz-adv-x="259" 
d="M80 692h84v-156h93v-66h-93v-344q0 -32 11 -46t44 -14q14 0 22 1t15 2v-69q-8 -2 -25 -4t-43 -2q-33 0 -54 6.5t-33 20t-16.5 33.5t-4.5 46v370h-78v66h78v156zM120 -50h83v-80q0 -41 -19.5 -59t-58.5 -21v26q13 4 22.5 11t11.5 32h-39v91z" />
    <glyph glyph-name="tbar" unicode="&#x167;" horiz-adv-x="259" 
d="M-6 346h86v124h-78v66h78v156h84v-156h93v-66h-93v-124h100v-49h-100v-171q0 -32 11 -46t44 -14q14 0 22 1t15 2v-69q-8 -2 -25 -4t-43 -2q-33 0 -54 6.5t-33 20t-16.5 33.5t-4.5 46v197h-86v49z" />
    <glyph glyph-name="utilde" unicode="&#x169;" 
d="M408 0h-80v63h-2q-17 -37 -54 -57t-76 -20q-53 0 -81.5 17.5t-42 43.5t-15.5 55.5t-2 53.5v380h84v-370q0 -15 1.5 -34t9.5 -35.5t23.5 -27.5t44.5 -11q17 0 35.5 6t34.5 19t26 33.5t10 49.5v370h84v-536zM380 739q0 -19 -5.5 -38.5t-16 -35.5t-27 -26.5t-37.5 -10.5
q-16 0 -33 6t-32.5 13l-28.5 13t-21 6q-20 0 -28.5 -15.5t-10.5 -29.5h-54q0 22 7 42t19.5 35.5t29.5 24.5t37 9q14 0 29.5 -5.5t30.5 -13.5l28.5 -13t23.5 -6q19 0 25.5 15.5t9.5 29.5h54z" />
    <glyph glyph-name="umacron" unicode="&#x16b;" 
d="M408 0h-80v63h-2q-17 -37 -54 -57t-76 -20q-53 0 -81.5 17.5t-42 43.5t-15.5 55.5t-2 53.5v380h84v-370q0 -15 1.5 -34t9.5 -35.5t23.5 -27.5t44.5 -11q17 0 35.5 6t34.5 19t26 33.5t10 49.5v370h84v-536zM101 707h264v-54h-264v54z" />
    <glyph glyph-name="ubreve" unicode="&#x16d;" 
d="M408 0h-80v63h-2q-17 -37 -54 -57t-76 -20q-53 0 -81.5 17.5t-42 43.5t-15.5 55.5t-2 53.5v380h84v-370q0 -15 1.5 -34t9.5 -35.5t23.5 -27.5t44.5 -11q17 0 35.5 6t34.5 19t26 33.5t10 49.5v370h84v-536zM155 744q0 -14 7 -26t18 -21t24.5 -14.5t27.5 -5.5q13 0 27 5.5
t25 14.5t18 21t7 26h48q0 -15 -5.5 -37t-19.5 -42t-38.5 -34t-61.5 -14q-38 0 -62 14t-38 34t-19.5 42t-5.5 37h48z" />
    <glyph glyph-name="uring" unicode="&#x16f;" 
d="M408 0h-80v63h-2q-17 -37 -54 -57t-76 -20q-53 0 -81.5 17.5t-42 43.5t-15.5 55.5t-2 53.5v380h84v-370q0 -15 1.5 -34t9.5 -35.5t23.5 -27.5t44.5 -11q17 0 35.5 6t34.5 19t26 33.5t10 49.5v370h84v-536zM175 690q0 -23 17 -40t40 -17t40 17t17 40t-17 40t-40 17
t-40 -17t-17 -40zM133 690q0 42 28.5 70.5t70.5 28.5t70.5 -28.5t28.5 -70.5t-28.5 -70.5t-70.5 -28.5t-70.5 28.5t-28.5 70.5z" />
    <glyph glyph-name="uhungarumlaut" unicode="&#x171;" 
d="M408 0h-80v63h-2q-17 -37 -54 -57t-76 -20q-53 0 -81.5 17.5t-42 43.5t-15.5 55.5t-2 53.5v380h84v-370q0 -15 1.5 -34t9.5 -35.5t23.5 -27.5t44.5 -11q17 0 35.5 6t34.5 19t26 33.5t10 49.5v370h84v-536zM351 751h98l-108 -142h-60zM187 751h98l-108 -142h-60z" />
    <glyph glyph-name="uogonek" unicode="&#x173;" 
d="M408 0h-32q-15 -12 -28 -25.5t-24 -27.5q-22 -29 -27.5 -44t-5.5 -30q0 -16 9 -26t27 -10q31 0 60 16l16 -35q-23 -15 -47.5 -21.5t-44.5 -6.5q-45 0 -64.5 21t-19.5 53q0 36 23.5 66.5t77.5 69.5v63h-2q-17 -37 -54 -57t-76 -20q-53 0 -81.5 17.5t-42 43.5t-15.5 55.5
t-2 53.5v380h84v-370q0 -15 1.5 -34t9.5 -35.5t23.5 -27.5t44.5 -11q17 0 35.5 6t34.5 19t26 33.5t10 49.5v370h84v-536z" />
    <glyph glyph-name="wcircumflex" unicode="&#x175;" horiz-adv-x="648" 
d="M10 536h88l86 -438h2l91 438h99l89 -438h2l83 438h88l-127 -536h-92l-94 438h-2l-90 -438h-98zM290 751h77l100 -142h-78l-61 88l-61 -88h-78z" />
    <glyph glyph-name="ycircumflex" unicode="&#x177;" horiz-adv-x="406" 
d="M10 536h92l106 -430h2l94 430h92l-155 -572q-8 -28 -17 -53t-24.5 -44.5t-39.5 -31t-62 -11.5q-25 0 -37.5 1t-23.5 2v66q18 -3 49 -3q29 0 43.5 15t22.5 37l16 47zM171 751h77l100 -142h-78l-61 88l-61 -88h-78z" />
    <glyph glyph-name="zacute" unicode="&#x17a;" horiz-adv-x="389" 
d="M39 536h323v-70l-240 -394h238v-72h-333v66l243 398h-231v72zM232 751h98l-108 -142h-60z" />
    <glyph glyph-name="zdotaccent" unicode="&#x17c;" horiz-adv-x="389" 
d="M39 536h323v-70l-240 -394h238v-72h-333v66l243 398h-231v72zM159 731h78v-101h-78v101z" />
    <glyph glyph-name="IJ" unicode="&#x132;" horiz-adv-x="622" 
d="M58 714h88v-714h-88v714zM564 205q0 -48 -7.5 -88t-27 -69t-54.5 -45.5t-90 -16.5q-45 0 -76.5 13.5t-51.5 36t-29.5 52t-9.5 61.5v59h84v-52q0 -45 18.5 -71.5t63.5 -26.5q30 0 48 9.5t28 28.5t13 47t3 65v506h88v-509z" />
    <glyph glyph-name="ij" unicode="&#x133;" horiz-adv-x="410" 
d="M60 714h84v-96h-84v96zM60 536h84v-536h-84v536zM350 618h-84v96h84v-96zM350 -52q0 -66 -29.5 -99t-98.5 -33q-10 0 -19.5 1l-19.5 2v72l15.5 -2t15.5 -1q19 0 30 7t15.5 19t5.5 28.5t1 35.5v558h84v-588z" />
    <glyph glyph-name="Ldot" unicode="&#x13f;" horiz-adv-x="444" 
d="M58 714h88v-636h290v-78h-378v714zM237 536h78v-101h-78v101z" />
    <glyph glyph-name="ldot" unicode="&#x140;" horiz-adv-x="293" 
d="M60 714h84v-714h-84v714zM200 536h78v-101h-78v101z" />
    <glyph glyph-name="estimated" unicode="&#x212e;" horiz-adv-x="600" 
d="M157 259v-181q59 -59 145 -59q63 0 109 28.5t84 91.5l35 -21q-23 -36 -46.5 -61.5t-51 -42t-59.5 -24t-71 -7.5q-59 0 -106.5 21.5t-81.5 59t-52 87.5t-18 108t18 108.5t52 87.5t81.5 58.5t106.5 21.5q58 0 105.5 -20.5t81.5 -57t53 -87t19 -111.5h-404zM448 295v145
q-63 60 -147 60t-144 -60v-145h291z" />
    <glyph glyph-name="afii61289" unicode="&#x2113;" horiz-adv-x="500" 
d="M418 42q-62 -56 -133 -56q-57 0 -93.5 32t-36.5 97v109l-58 -61h-2l-27 40l87 84v258q0 42 10 74.5t28 55t42.5 34.5t52.5 12q51 0 82 -34.5t31 -95.5q0 -74 -44 -153t-129 -164v-147q0 -26 7 -42.5t17.5 -26t23.5 -13.5t26 -4q20 0 42.5 9.5t45.5 29.5h2zM340 586
q0 38 -15 61t-37 23q-23 0 -41.5 -27t-18.5 -86v-218q54 63 83 127t29 120z" />
    <glyph glyph-name="quotedbl" unicode="&#x22;" horiz-adv-x="407" 
d="M254 714h66v-254h-66v254zM87 714h66v-254h-66v254z" />
    <glyph glyph-name="exclam" unicode="!" horiz-adv-x="258" 
d="M83 96h92v-96h-92v96zM83 714h92l-16 -528h-60z" />
    <glyph glyph-name="uniF8FF" unicode="&#xf8ff;" horiz-adv-x="512" 
d="M222 117v67h56v-67h-56zM225 234l-2 17q0 56 13 81q7 13 18 27.5t28 31.5q16 15 26 26.5t15 21t7 18t2 17.5q0 36 -22.5 60.5t-53.5 24.5t-53.5 -22t-28.5 -73l-50 8q7 72 44 104.5t91 32.5t89 -35.5t35 -95.5q0 -32 -12.5 -58.5t-50.5 -61.5q-37 -33 -43 -52
q-6 -20 -6 -72h-46zM462 50v617h-412v-617h412zM512 718v-718h-512v718h512z" />
    <glyph glyph-name="uni00A0" unicode="&#xa0;" horiz-adv-x="240" 
 />
    <glyph glyph-name="uni00AD" unicode="&#xad;" horiz-adv-x="352" 
d="M54 323h244v-78h-244v78z" />
    <glyph glyph-name="grave.cap" horiz-adv-x="204" 
d="M82 915l70 -142h-60l-108 142h98z" />
    <glyph glyph-name="Dcroat" unicode="&#x110;" horiz-adv-x="556" 
d="M247 72q57 0 90.5 26.5t51 67.5t22.5 91.5t5 98.5q0 52 -4 103t-20.5 91.5t-50.5 66t-94 25.5h-92v-236h134v-66h-134v-268h92zM67 340h-58v66h58v308h191q83 0 132.5 -28t75.5 -76.5t34 -113.5t8 -139q0 -68 -10 -132t-37 -114t-74 -80.5t-120 -30.5h-200v340z" />
    <glyph glyph-name="uni021A" unicode="&#x21a;" 
d="M275 0h-88v636h-179v78h447v-78h-180v-636zM189 -50h83v-80q0 -41 -19.5 -59t-58.5 -21v26q13 4 22.5 11t11.5 32h-39v91z" />
    <glyph glyph-name="acute.cap" horiz-adv-x="204" 
d="M122 915h98l-108 -142h-60z" />
    <glyph glyph-name="circumflex.cap" horiz-adv-x="204" 
d="M64 915h77l100 -142h-78l-61 88l-61 -88h-78z" />
    <glyph glyph-name="caron.cap" horiz-adv-x="204" 
d="M140 773h-77l-100 142h78l61 -88l61 88h78z" />
    <glyph glyph-name="tilde.cap" horiz-adv-x="204" 
d="M249 903q0 -19 -5.5 -38.5t-16 -35.5t-27 -26.5t-37.5 -10.5q-16 0 -33 6t-32.5 13l-28.5 13t-21 6q-20 0 -28.5 -15.5t-10.5 -29.5h-54q0 22 7 42t19.5 35.5t29.5 24.5t37 9q14 0 29.5 -5.5t30.5 -13.5l28.5 -13t23.5 -6q19 0 25.5 15.5t9.5 29.5h54z" />
    <glyph glyph-name="dieresis.cap" horiz-adv-x="204" 
d="M144 895h78v-101h-78v101zM-18 895h78v-101h-78v101z" />
    <glyph glyph-name="macron.cap" horiz-adv-x="204" 
d="M-30 871h264v-54h-264v54z" />
    <glyph glyph-name="uni02C9" unicode="&#x2c9;" horiz-adv-x="204" 
d="M-30 707h264v-54h-264v54z" />
    <glyph glyph-name="breve.cap" horiz-adv-x="204" 
d="M25 890q0 -14 7 -26t18 -21t24.5 -14.5t27.5 -5.5q13 0 27 5.5t25 14.5t18 21t7 26h48q0 -15 -5.5 -37t-19.5 -42t-38.5 -34t-61.5 -14q-38 0 -62 14t-38 34t-19.5 42t-5.5 37h48z" />
    <glyph glyph-name="ring.cap" horiz-adv-x="204" 
d="M45 844q0 -23 17 -40t40 -17t40 17t17 40t-17 40t-40 17t-40 -17t-17 -40zM3 844q0 42 28.5 70.5t70.5 28.5t70.5 -28.5t28.5 -70.5t-28.5 -70.5t-70.5 -28.5t-70.5 28.5t-28.5 70.5z" />
    <glyph glyph-name="hungarumlaut.cap" horiz-adv-x="204" 
d="M184 915h98l-108 -142h-60zM20 915h98l-108 -142h-60z" />
    <glyph glyph-name="dotaccent.cap" horiz-adv-x="204" 
d="M63 895h78v-101h-78v101z" />
    <glyph glyph-name="uni2219" unicode="&#x2219;" horiz-adv-x="240" 
d="M64 327q0 23 16.5 39.5t39.5 16.5t39.5 -16.5t16.5 -39.5t-16.5 -39.5t-39.5 -16.5t-39.5 16.5t-16.5 39.5z" />
    <glyph glyph-name="uni2215" unicode="&#x2215;" horiz-adv-x="167" 
d="M271 725h60l-435 -756h-60z" />
    <glyph glyph-name="uni03BC" unicode="&#x3bc;" 
d="M408 0h-80v63h-2q-17 -37 -54 -57t-76 -20q-17 0 -31.5 3t-25.5 11v-176h-84v712h84v-370q0 -15 1.5 -34t9.5 -35.5t23.5 -27.5t44.5 -11q17 0 35.5 6t34.5 19t26 33.5t10 49.5v370h84v-536z" />
    <glyph glyph-name="uni03A9" unicode="&#x3a9;" horiz-adv-x="748" 
d="M432 0v183q87 17 131.5 78.5t44.5 148.5q0 52 -18 95.5t-50 75.5t-76 50t-96 18q-51 0 -95.5 -18t-76.5 -50t-50.5 -76t-18.5 -95q0 -42 11.5 -80.5t33.5 -68.5t55 -50.5t77 -27.5v-183h-257v67h193v72q-47 13 -82.5 39.5t-60.5 63t-37.5 80.5t-12.5 91q0 67 25.5 124
t69.5 97.5t102 63.5t124 23t124 -22.5t101.5 -63t69 -97t25.5 -123.5q0 -48 -12.5 -92t-36.5 -80.5t-60 -63.5t-83 -40v-72h192v-67h-256z" />
    <glyph glyph-name="uni0394" unicode="&#x394;" horiz-adv-x="674" 
d="M333 628l-213 -556h430zM13 0l279 712h83l287 -712h-649z" />
    <glyph glyph-name="uni021B" unicode="&#x21b;" horiz-adv-x="259" 
d="M80 692h84v-156h93v-66h-93v-344q0 -32 11 -46t44 -14q14 0 22 1t15 2v-69q-8 -2 -25 -4t-43 -2q-33 0 -54 6.5t-33 20t-16.5 33.5t-4.5 46v370h-78v66h78v156zM120 -50h83v-80q0 -41 -19.5 -59t-58.5 -21v26q13 4 22.5 11t11.5 32h-39v91z" />
    </font>
</defs>
</svg>
