<?xml version="1.0" standalone="no"?>
<!DOCTYPE svg PUBLIC "-//W3C//DTD SVG 1.1//EN" "http://www.w3.org/Graphics/SVG/1.1/DTD/svg11.dtd" >
<svg>
<metadata>
Created by FontForge 20090622 at Thu Mar 30 08:28:08 2017
 By deploy user
Copyright &#194;&#169; 1988, 1990, 1993, 2003 Linotype Library GmbH, www.linotype.com. All rights reserved. Copyright &#194;&#169; 1988, 1990, 1993 Adobe Systems Incorporated. All Rights Reserved.
</metadata>
<defs>
<font id="HelveticaNeueLTPro-BdCnO" horiz-adv-x="480" >
  <font-face 
    font-family="HelveticaNeueLT Pro 57 Cn"
    font-weight="700"
    font-style="italic"
    font-stretch="normal"
    units-per-em="1000"
    panose-1="2 11 7 6 3 5 2 3 2 4"
    ascent="714"
    descent="-286"
    x-height="538"
    cap-height="714"
    bbox="-170 -253 1113.67 1370"
    underline-thickness="50"
    underline-position="-50"
    slope="-12"
    unicode-range="U+000D-U+FB02"
  />
<missing-glyph horiz-adv-x="512" 
d="M222 117v67h56v-67h-56zM225 234l-2 17q0 56 13 81q7 13 18 27.5t28 31.5q16 15 26 26.5t15 21t7 18t2 17.5q0 36 -22.5 60.5t-53.5 24.5t-53.5 -22t-28.5 -73l-50 8q7 72 44 104.5t91 32.5t89 -35.5t35 -95.5q0 -32 -12.5 -58.5t-50.5 -61.5q-37 -33 -43 -52
q-6 -20 -6 -72h-46zM462 50v617h-412v-617h412zM512 718v-718h-512v718h512z" />
    <glyph glyph-name=".notdef" horiz-adv-x="512" 
d="M222 117v67h56v-67h-56zM225 234l-2 17q0 56 13 81q7 13 18 27.5t28 31.5q16 15 26 26.5t15 21t7 18t2 17.5q0 36 -22.5 60.5t-53.5 24.5t-53.5 -22t-28.5 -73l-50 8q7 72 44 104.5t91 32.5t89 -35.5t35 -95.5q0 -32 -12.5 -58.5t-50.5 -61.5q-37 -33 -43 -52
q-6 -20 -6 -72h-46zM462 50v617h-412v-617h412zM512 718v-718h-512v718h512z" />
    <glyph glyph-name=".null" horiz-adv-x="500" 
 />
    <glyph glyph-name=".null" horiz-adv-x="500" 
 />
    <glyph glyph-name="nonmarkingreturn" unicode="&#xd;" horiz-adv-x="0" 
 />
    <glyph glyph-name="space" unicode=" " horiz-adv-x="240" 
 />
    <glyph glyph-name="numbersign" unicode="#" 
d="M243 286h97l41 122h-98zM59 286h87l41 122h-73l24 112h86l58 174h96l-57 -174h97l58 174h97l-58 -174h73l-24 -112h-86l-41 -122h73l-23 -112h-86l-58 -174h-97l58 174h-98l-57 -174h-97l58 174h-74z" />
    <glyph glyph-name="dollar" unicode="$" 
d="M202 -14q-46 4 -77 15t-50 28.5t-27 39.5t-8 48q0 17 2 35.5t6 38.5l5 21h138q-5 -21 -7.5 -40.5t0 -35.5t12 -27.5t28.5 -16.5l42 202l-47 18q-67 26 -89 74.5t-8 117.5q20 93 79.5 143.5t150.5 60.5l14 69h64l-14 -69q54 -5 86 -22.5t47.5 -43.5t17 -58t-5.5 -65
l-3 -14h-138q8 38 2.5 63.5t-28.5 33.5l-40 -189l73 -32q25 -12 44.5 -26t31.5 -34.5t15 -49.5t-6 -71q-23 -108 -84.5 -157.5t-161.5 -56.5l-18 -87h-64zM330 602q-24 -7 -41 -25.5t-24 -50.5q-12 -54 31 -84zM288 92q32 7 50.5 29.5t23.5 50.5q8 38 -2 60t-36 37z" />
    <glyph glyph-name="percent" unicode="%" horiz-adv-x="778" 
d="M696 725h89l-563 -756h-89zM241 521q-13 -60 -12 -89.5t31 -29.5t43 29.5t26 89.5q11 54 10 82.5t-31 28.5t-43 -28.5t-24 -82.5zM134 517q10 48 23.5 84t35 60t53 35.5t78.5 11.5q46 0 73 -11.5t38.5 -35.5t10 -60t-11.5 -84t-23.5 -84t-35 -60t-53.5 -35.5t-78 -11.5
q-47 0 -73.5 11.5t-38 35.5t-10 60t11.5 84zM487 177q10 48 23.5 84t35 60t53 35.5t78.5 11.5q46 0 73 -11.5t38.5 -35.5t10 -60t-11.5 -84t-23.5 -84t-34.5 -60t-53 -35.5t-78 -11.5q-47 0 -73.5 11.5t-38.5 35.5t-10.5 60t11.5 84zM594 181q-12 -60 -11.5 -89.5
t30.5 -29.5t43.5 29.5t25.5 89.5q11 54 10 82.5t-31 28.5t-43 -28.5t-24 -82.5z" />
    <glyph glyph-name="ampersand" unicode="&#x26;" horiz-adv-x="593" 
d="M474 235q17 23 30 54.5t18 53.5h124q-12 -58 -43.5 -111.5t-73.5 -99.5l67 -132h-153l-29 55q-34 -32 -83 -50.5t-103 -18.5q-68 0 -106.5 21t-56 52t-19 67t4.5 66q14 63 63 113.5t124 92.5l-17 37q-11 22 -16.5 39t-7.5 32t-1 29t4 29q7 34 26 62t47.5 47.5t64 30
t75.5 10.5q46 0 77 -11.5t48.5 -32t22.5 -47.5t-1 -58q-11 -54 -50.5 -97t-111.5 -88zM288 313q-48 -32 -69.5 -60t-29.5 -61q-3 -17 0 -33.5t13 -30t27 -22t41 -8.5q57 0 102 45zM319 568q-6 -31 19 -78l12 -24l31 22q28 20 42.5 39.5t18.5 38.5q6 29 -8 44.5t-42 15.5
q-26 0 -47 -15t-26 -43z" />
    <glyph glyph-name="quoteright" unicode="&#x2019;" horiz-adv-x="260" 
d="M317 584q-8 -40 -20.5 -73.5t-32.5 -58t-49 -40t-70 -19.5l15 70q27 5 44.5 28t23.5 51l4 16h-52l32 156h132z" />
    <glyph glyph-name="parenleft" unicode="(" horiz-adv-x="296" 
d="M444 714q-43 -57 -75.5 -110.5t-57.5 -107.5t-43 -111t-31 -120q-14 -63 -19.5 -120t-3 -111t13 -107.5t29.5 -110.5h-106q-49 118 -59 230.5t13 218.5q22 106 78 218.5t155 230.5h106z" />
    <glyph glyph-name="parenright" unicode=")" horiz-adv-x="296" 
d="M254 714q51 -118 60 -230.5t-13 -218.5q-23 -106 -79 -218.5t-155 -230.5h-105q43 57 75.5 110.5t57 107.5t42.5 111t32 120q13 64 18.5 120.5t3 110.5t-13 107.5t-29.5 110.5h106z" />
    <glyph glyph-name="asterisk" unicode="*" horiz-adv-x="390" 
d="M384 714l-27 -128l131 40l8 -78l-130 -40l54 -104l-76 -48l-54 104l-96 -104l-58 48l98 104l-114 40l42 78l113 -40l27 128h82z" />
    <glyph glyph-name="plus" unicode="+" horiz-adv-x="600" 
d="M277 191h-191l26 124h191l40 191h124l-40 -191h191l-26 -124h-191l-39 -191h-124z" />
    <glyph glyph-name="comma" unicode="," horiz-adv-x="240" 
d="M218 156l-27 -130q-8 -40 -20.5 -73.5t-32.5 -58t-49 -40t-70 -19.5l15 70q27 5 44.5 28t23.5 51l4 16h-52l32 156h132z" />
    <glyph glyph-name="hyphen" unicode="-" horiz-adv-x="370" 
d="M398 348l-25 -118h-282l25 118h282z" />
    <glyph glyph-name="period" unicode="." horiz-adv-x="240" 
d="M218 156l-32 -156h-132l32 156h132z" />
    <glyph glyph-name="slash" unicode="/" horiz-adv-x="332" 
d="M374 728h112l-380 -742h-111z" />
    <glyph glyph-name="zero" unicode="0" 
d="M86 330q15 73 34.5 141.5t52.5 121t84 84t130 31.5q65 0 103.5 -18.5t55.5 -59.5t13.5 -106.5t-22.5 -159.5q-15 -74 -34 -142t-52 -120.5t-84 -84t-130 -31.5q-64 0 -103 18.5t-56 59.5t-14.5 106.5t22.5 159.5zM224 299q-14 -67 -19.5 -109.5t-1.5 -67t17 -33.5t36 -9
q24 0 41.5 11.5t32 39t27.5 73.5t27 114l16 77q14 67 19 109.5t1.5 67t-17 33.5t-36.5 9q-24 0 -41.5 -11.5t-31.5 -39t-27 -73.5t-27 -114z" />
    <glyph glyph-name="one" unicode="1" 
d="M182 0l103 500h-141l20 94h13q72 0 119.5 27t70.5 87h106l-147 -708h-144z" />
    <glyph glyph-name="two" unicode="2" 
d="M454 0h-436q10 47 28 88t45 78.5t63.5 72.5t83.5 71l69 54q28 21 46.5 39t30 36t18.5 39t13 48q18 88 -52 88q-27 0 -45 -11t-30 -30t-20 -44t-14 -53h-138l6 27q20 100 84 152.5t179 52.5q108 0 149.5 -50t22.5 -143q-8 -35 -20 -64t-30 -55.5t-44.5 -52.5t-62.5 -53
l-96 -74q-37 -29 -61 -56.5t-33 -47.5h267z" />
    <glyph glyph-name="three" unicode="3" 
d="M201 207q-12 -62 -3.5 -94.5t55.5 -32.5q26 0 43.5 9t29 24.5t18.5 36.5t12 44q5 24 6 45.5t-5.5 38.5t-22.5 27t-46 10h-48l20 94h47q23 0 40.5 9.5t30 25t21 35.5t13.5 42q11 51 -2 72t-48 21q-23 0 -39 -8.5t-27.5 -24t-18.5 -36.5t-12 -46h-132q22 106 86 157.5
t166 51.5q97 0 141 -44t25 -138q-14 -64 -50.5 -104.5t-90.5 -51.5v-2q66 -11 85.5 -55.5t5.5 -111.5q-7 -36 -24 -74t-49 -69.5t-82.5 -51.5t-123.5 -20q-103 0 -142 57.5t-18 160.5l1 3h138z" />
    <glyph glyph-name="four" unicode="4" 
d="M69 265l327 443h149l-94 -449h68l-23 -112h-68l-30 -147h-132l30 147h-252zM375 528h-2l-194 -269h140z" />
    <glyph glyph-name="five" unicode="5" 
d="M546 582h-261l-49 -161h2q26 28 60.5 40.5t80.5 12.5q51 0 80.5 -19.5t42.5 -51.5t12.5 -72.5t-9.5 -82.5q-12 -59 -32 -107t-52.5 -82.5t-80.5 -53.5t-116 -19q-50 0 -83.5 11.5t-53.5 30t-28.5 42t-8.5 48.5q0 35 6 65l3 19h138q-3 -18 -5 -38t1.5 -37.5t15 -29
t34.5 -11.5q45 0 72 34.5t41 103.5q9 44 11 73t-4 46t-20.5 24t-38.5 7q-31 0 -51 -17.5t-30 -47.5h-129l106 385h369z" />
    <glyph glyph-name="six" unicode="6" 
d="M210 220q-6 -30 -8.5 -56t2 -44.5t17.5 -29t39 -10.5t44 10.5t30 29.5t19.5 44.5t13.5 55.5q15 72 3.5 103t-53.5 31q-43 0 -67.5 -31t-39.5 -103zM420 528q9 42 -1 64t-46 22q-29 0 -49 -13.5t-34 -37.5t-24 -57t-18 -72l-8 -35h2q24 28 61 44.5t85 16.5
q47 0 76.5 -16.5t44 -46t15.5 -70t-9 -88.5q-25 -123 -93 -188t-188 -65q-74 0 -112.5 27.5t-52.5 73t-9 105.5t19 125q16 75 35 145.5t53 125t89 87.5t143 33q38 0 71.5 -9t56.5 -30t32 -55.5t-1 -85.5h-138z" />
    <glyph glyph-name="seven" unicode="7" 
d="M602 694l-23 -110q-57 -62 -106.5 -133t-91 -146t-74.5 -152.5t-57 -152.5h-151q21 64 51.5 134.5t72.5 144t95.5 147t119.5 144.5h-298l26 124h436z" />
    <glyph glyph-name="eight" unicode="8" 
d="M199 202q-5 -26 -6 -48t5 -38.5t20 -26t38 -9.5t42 9.5t30.5 26t21 38.5t13.5 48q6 25 7 47.5t-5 39t-20 26t-38 9.5q-25 0 -42.5 -9.5t-30 -26t-21 -39t-14.5 -47.5zM277 517q-11 -51 3 -75t46 -24t56 24t35 75q19 97 -50 97q-71 0 -90 -97zM55 200q14 67 53.5 115
t102.5 60l1 2q-27 7 -43.5 22t-24.5 34t-9 40t3 40q22 104 87 149.5t162 45.5q48 0 84.5 -11t58.5 -34.5t28.5 -60.5t-4.5 -89q-4 -19 -13.5 -40t-25.5 -40t-38.5 -34t-52.5 -22l-1 -2q58 -12 78 -60t6 -115q-6 -30 -21 -67.5t-46 -70t-80 -54.5t-123 -22t-114 22t-57 54.5
t-17 70t6 67.5z" />
    <glyph glyph-name="nine" unicode="9" 
d="M256 474q-15 -72 -3.5 -103t53.5 -31q43 0 67.5 31t39.5 103q6 30 8.5 56t-2 44.5t-18 29t-38.5 10.5q-26 0 -43.5 -10.5t-29.5 -29.5t-20 -44.5t-14 -55.5zM203 165q-8 -40 1.5 -62.5t45.5 -22.5q28 0 48.5 13.5t35 37.5t24.5 57t18 72l7 34h-2q-24 -27 -61 -43.5
t-85 -16.5q-47 0 -76.5 16.5t-44 46t-15.5 70t9 88.5q26 123 94 188t188 65q74 0 112.5 -27.5t52 -73t8 -105.5t-18.5 -125l-22.5 -98.5t-27.5 -92t-38 -80.5t-53.5 -63.5t-75 -41.5t-102.5 -15q-38 0 -71.5 9t-56.5 29.5t-32.5 55t0.5 85.5h138z" />
    <glyph glyph-name="colon" unicode=":" horiz-adv-x="240" 
d="M162 521h132l-33 -156h-132zM86 156h132l-32 -156h-132z" />
    <glyph glyph-name="semicolon" unicode=";" horiz-adv-x="240" 
d="M294 521l-33 -156h-132l33 156h132zM218 156l-27 -130q-8 -40 -20.5 -73.5t-32.5 -58t-49 -40t-70 -19.5l15 70q27 5 44.5 28t23.5 51l4 16h-52l32 156h132z" />
    <glyph glyph-name="semicolon" unicode="&#x37e;" horiz-adv-x="240" 
d="M294 521l-33 -156h-132l33 156h132zM218 156l-27 -130q-8 -40 -20.5 -73.5t-32.5 -58t-49 -40t-70 -19.5l15 70q27 5 44.5 28t23.5 51l4 16h-52l32 156h132z" />
    <glyph glyph-name="less" unicode="&#x3c;" horiz-adv-x="600" 
d="M110 306l549 208l-25 -124l-367 -137l310 -137l-26 -124l-463 208z" />
    <glyph glyph-name="equal" unicode="=" horiz-adv-x="600" 
d="M89 206h506l-25 -124h-506zM135 424h506l-26 -124h-506z" />
    <glyph glyph-name="greater" unicode="&#x3e;" horiz-adv-x="600" 
d="M71 116l366 137l-309 137l25 124l463 -208l-22 -106l-549 -208z" />
    <glyph glyph-name="question" unicode="?" horiz-adv-x="481" 
d="M327 132l-27 -132h-138l27 132h138zM138 493l5 23q9 45 29.5 83t51 65t71 42.5t89.5 15.5q105 0 147 -52.5t23 -140.5q-8 -42 -29 -78t-66 -78l-49 -45q-32 -29 -48.5 -53t-24.5 -62l-3 -15h-124l8 39q10 50 31.5 84.5t62.5 72.5l47 43q26 23 40 49.5t20 56.5
q8 38 -4 61.5t-46 23.5q-38 0 -60.5 -30.5t-33.5 -79.5l-5 -25h-132z" />
    <glyph glyph-name="at" unicode="@" horiz-adv-x="800" 
d="M647 541h88l-110 -250q-6 -14 -9.5 -25t-5.5 -16q-3 -20 16 -20q15 0 35.5 12.5t41 35t38 55t25.5 71.5q10 50 -3 92t-43.5 73t-75 48t-96.5 17q-59 0 -114.5 -23t-100.5 -62t-76 -89t-42 -104q-12 -57 0.5 -107.5t43 -88t77.5 -59t104 -21.5q69 0 127 19.5t103 44.5h89
q-69 -75 -158.5 -116.5t-203.5 -41.5q-77 0 -138.5 29t-101.5 79.5t-55 118t1 144.5t59 144.5t104 118t134.5 79.5t150.5 29q75 0 138 -21.5t105.5 -61.5t60.5 -95.5t4 -124.5q-11 -53 -34 -95t-52 -73.5t-61.5 -54t-63.5 -36.5t-57.5 -20.5t-42.5 -6.5q-60 0 -54 53h-2
q-23 -21 -57 -37t-74 -16q-27 0 -50.5 11.5t-39.5 33.5t-22 53.5t2 71.5q9 46 33 90t59.5 78.5t79.5 56t93 21.5q38 0 65.5 -16t41.5 -51zM366 326q-7 -33 7.5 -57t46.5 -24q26 0 49.5 11.5t42.5 30t32.5 41.5t18.5 45q7 32 -10.5 54t-48.5 22q-24 0 -47 -11.5t-42 -29.5
t-32 -39.5t-17 -42.5z" />
    <glyph glyph-name="A" unicode="A" horiz-adv-x="556" 
d="M263 269h140l-2 321h-2zM337 714h178l41 -714h-150l-2 151h-190l-64 -151h-150z" />
    <glyph glyph-name="B" unicode="B" horiz-adv-x="556" 
d="M216 106h56q52 0 88.5 23t49.5 85q6 31 2 51.5t-16 33t-31 17.5t-43 5h-62zM281 421h41q60 0 92 21.5t43 72.5t-10 72t-75 21h-52zM198 714h241q44 0 79.5 -9t58 -30t30.5 -56t-3 -86q-12 -58 -47.5 -99.5t-92.5 -56.5l-1 -2q58 -8 84.5 -51t11.5 -115q-9 -42 -28 -80
t-51 -66.5t-78 -45.5t-109 -17h-243z" />
    <glyph glyph-name="C" unicode="C" horiz-adv-x="537" 
d="M453 473q16 78 5 113.5t-60 35.5q-27 0 -47.5 -14.5t-37 -47t-31.5 -85t-31 -128.5q-17 -81 -21.5 -131t1.5 -77.5t21 -37t38 -9.5q19 0 37 6.5t34 26t30 55t26 93.5h144q-12 -58 -31.5 -110t-52.5 -91.5t-82 -62.5t-120 -23q-81 0 -123.5 27.5t-57.5 76.5t-8.5 117.5
t23.5 149.5t39 149.5t57 117.5t89 76.5t135 27.5q77 0 115.5 -25t53 -63.5t11 -83t-11.5 -83.5h-144z" />
    <glyph glyph-name="D" unicode="D" horiz-adv-x="574" 
d="M223 106h64q37 0 63.5 13t45.5 43t34 79t30 122q13 61 18.5 106.5t-0.5 76.5t-27.5 46.5t-62.5 15.5h-61zM205 714h236q75 0 116 -24.5t57 -70t11.5 -109.5t-20.5 -143q-20 -95 -45.5 -164t-63 -114t-89 -67t-123.5 -22h-227z" />
    <glyph glyph-name="E" unicode="E" horiz-adv-x="481" 
d="M597 714l-25 -118h-255l-35 -168h240l-24 -118h-240l-40 -192h265l-24 -118h-409l148 714h399z" />
    <glyph glyph-name="F" unicode="F" horiz-adv-x="463" 
d="M198 714h399l-25 -118h-255l-35 -168h240l-24 -118h-240l-64 -310h-144z" />
    <glyph glyph-name="G" unicode="G" horiz-adv-x="556" 
d="M471 502q2 10 3 20t1 21q0 31 -14.5 55t-46.5 24q-52 0 -87 -58t-63 -192q-14 -65 -21 -116.5t-3.5 -88t19 -56t46.5 -19.5q13 0 29.5 7t33 21t30 35.5t19.5 50.5l16 73h-95l22 106h233l-80 -385h-106l13 66h-2q-34 -42 -74.5 -61t-91.5 -19q-66 0 -102.5 24.5
t-49.5 72.5t-7 118.5t25 163.5q19 90 45 158t63 113.5t88 68.5t120 23q59 0 98 -15t60 -43.5t24.5 -71t-7.5 -96.5h-138z" />
    <glyph glyph-name="H" unicode="H" horiz-adv-x="556" 
d="M198 714h144l-57 -273h168l57 273h144l-148 -714h-144l65 317h-168l-65 -317h-144z" />
    <glyph glyph-name="I" unicode="I" horiz-adv-x="258" 
d="M57 0l148 714h144l-148 -714h-144z" />
    <glyph glyph-name="J" unicode="J" horiz-adv-x="463" 
d="M567 714l-107 -514q-24 -114 -87 -164t-172 -50q-57 0 -90 17t-48.5 45.5t-16 66.5t8.5 80l6 31h132l-4 -22q-12 -57 -5 -84.5t46 -27.5t57 27.5t30 84.5l106 510h144z" />
    <glyph glyph-name="K" unicode="K" horiz-adv-x="537" 
d="M342 714l-60 -286h2l242 286h156l-258 -306l132 -408h-162l-87 293l-69 -81l-44 -212h-144l148 714h144z" />
    <glyph glyph-name="L" unicode="L" horiz-adv-x="463" 
d="M50 0l148 714h144l-124 -596h255l-24 -118h-399z" />
    <glyph glyph-name="M" unicode="M" horiz-adv-x="740" 
d="M201 714h214l-3 -504h2l208 504h213l-148 -714h-132l118 570h-2l-245 -570h-112l-9 570h-2l-118 -570h-132z" />
    <glyph glyph-name="N" unicode="N" horiz-adv-x="574" 
d="M364 714l72 -489h2l102 489h132l-148 -714h-164l-73 500h-2l-103 -500h-132l148 714h166z" />
    <glyph glyph-name="O" unicode="O" horiz-adv-x="556" 
d="M253 357q-15 -72 -22 -122.5t-3 -82t20.5 -46t48.5 -14.5t54.5 14.5t39.5 46t31 82t29 122.5t22 122t3 82t-20.5 46.5t-48.5 14.5t-54.5 -14.5t-39.5 -46.5t-31 -82t-29 -122zM109 357q17 81 39 149.5t57 117.5t89 76.5t135 27.5t123.5 -27.5t57.5 -76.5t8.5 -117.5
t-23.5 -149.5t-39 -149.5t-57 -117.5t-89 -76.5t-135 -27.5t-123.5 27.5t-57.5 76.5t-8.5 117.5t23.5 149.5z" />
    <glyph glyph-name="P" unicode="P" horiz-adv-x="519" 
d="M275 391h64q43 0 75 26t43 81q11 54 -6 82t-71 28h-60zM198 714h252q55 0 88.5 -18.5t50.5 -48.5t19 -68.5t-7 -78.5q-11 -56 -35.5 -96.5t-60 -67t-80 -39t-95.5 -12.5h-77l-59 -285h-144z" />
    <glyph glyph-name="Q" unicode="Q" horiz-adv-x="556" 
d="M253 357q-15 -72 -22 -122.5t-3 -82t20.5 -46t48.5 -14.5t54.5 14.5t39.5 46t31 82t29 122.5t22 122t3 82t-20.5 46.5t-48.5 14.5t-54.5 -14.5t-39.5 -46.5t-31 -82t-29 -122zM439 -88l-66 88q-11 -4 -22.5 -6.5t-24.5 -4.5q-23 -3 -51 -3q-81 0 -123.5 27.5t-57.5 76.5
t-8.5 117.5t23.5 149.5t39 149.5t57 117.5t89 76.5t135 27.5t123.5 -27.5t57.5 -76.5t8.5 -117.5t-23.5 -149.5q-19 -91 -44 -165t-72 -125l61 -78z" />
    <glyph glyph-name="R" unicode="R" horiz-adv-x="556" 
d="M198 714h266q90 0 130.5 -45.5t21.5 -138.5q-15 -72 -53.5 -117.5t-102.5 -58.5v-2q36 -5 55.5 -18.5t26 -39t2.5 -64.5t-15 -96t-11.5 -87t17.5 -41l-1 -6h-156q-8 15 -7.5 34.5t4.5 40.5l25 137q7 42 -7.5 66t-59.5 24h-77l-62 -302h-144zM277 402h60q52 0 85 24.5
t45 82.5q21 99 -79 99h-68z" />
    <glyph glyph-name="S" unicode="S" horiz-adv-x="519" 
d="M212 223l-5 -21q-2 -13 -3.5 -24t-1.5 -22q0 -29 17.5 -46.5t60.5 -17.5q33 0 63.5 21.5t40.5 66.5q5 24 2 41.5t-15.5 31.5t-34.5 25.5t-55 23.5q-45 16 -76 35t-49 44.5t-22 59t5 77.5q22 106 92 158t173 52q48 0 86.5 -10.5t62.5 -34t33 -60t-1 -87.5l-4 -20h-138
q11 51 -1.5 78.5t-54.5 27.5q-24 0 -41.5 -7t-29.5 -18.5t-18.5 -26.5t-9.5 -31q-8 -33 2 -55.5t51 -41.5l101 -48q37 -18 59.5 -37.5t33 -42t11 -49.5t-6.5 -60q-23 -113 -99.5 -166t-193.5 -53q-122 0 -163.5 54.5t-20.5 153.5l6 29h144z" />
    <glyph glyph-name="T" unicode="T" 
d="M616 714l-25 -118h-156l-123 -596h-144l123 596h-156l25 118h456z" />
    <glyph glyph-name="U" unicode="U" horiz-adv-x="538" 
d="M333 714l-104 -498q-5 -27 -6 -49.5t5 -39t20 -26t40 -9.5q25 0 43.5 9.5t31.5 26t21 39t13 49.5l104 498h144l-104 -498q-14 -68 -42 -112.5t-65.5 -70.5t-80.5 -36.5t-87 -10.5t-83 9t-66 34.5t-37 70t5 116.5l104 498h144z" />
    <glyph glyph-name="V" unicode="V" horiz-adv-x="519" 
d="M305 714l-9 -528h3l216 528h149l-312 -714h-185l-16 714h154z" />
    <glyph glyph-name="W" unicode="W" horiz-adv-x="760" 
d="M156 714h138l-31 -528h2l194 528h138l-26 -528h2l189 528h138l-278 -714h-161l27 518h-2l-187 -518h-161z" />
    <glyph glyph-name="X" unicode="X" horiz-adv-x="537" 
d="M168 714h159l44 -231l139 231h157l-239 -353l103 -361h-162l-53 242l-152 -242h-158l253 361z" />
    <glyph glyph-name="Y" unicode="Y" horiz-adv-x="520" 
d="M313 714l37 -276h2l157 276h156l-275 -433l-58 -281h-144l58 281l-95 433h162z" />
    <glyph glyph-name="Z" unicode="Z" horiz-adv-x="481" 
d="M45 105l365 491h-245l25 118h411l-23 -109l-368 -487h271l-24 -118h-433z" />
    <glyph glyph-name="bracketleft" unicode="[" horiz-adv-x="315" 
d="M228 714h229l-21 -100h-105l-145 -698h105l-21 -100h-229z" />
    <glyph glyph-name="backslash" unicode="\" horiz-adv-x="332" 
d="M148 728h112l72 -742h-112z" />
    <glyph glyph-name="bracketright" unicode="]" horiz-adv-x="315" 
d="M-11 -84h104l145 698h-105l21 100h229l-187 -898h-228z" />
    <glyph glyph-name="asciicircum" unicode="^" horiz-adv-x="600" 
d="M120 309l268 385h112l108 -385h-124l-69 247l-171 -247h-124z" />
    <glyph glyph-name="underscore" unicode="_" horiz-adv-x="500" 
d="M-25 -125l10 50h499l-10 -50h-499z" />
    <glyph glyph-name="quoteleft" unicode="&#x2018;" horiz-adv-x="260" 
d="M172 523q8 40 20.5 73.5t32.5 58t49 40t70 19.5l-15 -70q-27 -5 -44.5 -28t-23.5 -51l-3 -16h52l-33 -156h-132z" />
    <glyph glyph-name="a" unicode="a" horiz-adv-x="481" 
d="M352 269q-16 -11 -33 -17.5t-31 -9.5q-45 -9 -66.5 -30t-29.5 -57q-7 -31 0.5 -53t35.5 -22q29 0 60 19t42 64zM122 373l3 13q10 46 31.5 78t51 51.5t65.5 28t75 8.5q62 0 97.5 -12t52 -34t17.5 -52.5t-6 -66.5l-59 -283q-4 -19 -6 -33t-2.5 -26t0.5 -22.5t4 -22.5h-132
q-5 13 -5.5 27.5t-0.5 28.5h-2q-32 -42 -67 -56t-84 -14q-36 0 -58 14t-33 36t-12 49.5t5 54.5q8 38 21.5 65.5t34 47t49 32.5t66.5 23l82 21q32 8 47.5 22t20.5 41q7 31 -4 48.5t-46 17.5q-32 0 -52 -19t-27 -51l-3 -15h-124z" />
    <glyph glyph-name="b" unicode="b" horiz-adv-x="500" 
d="M194 714h138l-47 -226h2q29 32 59.5 48t69.5 16q85 0 111 -66.5t-5 -216.5t-84.5 -216.5t-138.5 -66.5q-42 0 -67.5 16.5t-40.5 54.5h-2l-11 -57h-132zM239 269q-18 -88 -13.5 -132.5t50.5 -44.5q45 0 67.5 44.5t40.5 132.5q19 88 14.5 132.5t-49.5 44.5
q-46 0 -68.5 -44.5t-41.5 -132.5z" />
    <glyph glyph-name="c" unicode="c" horiz-adv-x="463" 
d="M376 344q4 19 5.5 38.5t-2 35t-14 25t-29.5 9.5q-26 0 -43.5 -11.5t-30.5 -34t-23 -57.5t-20 -81q-10 -50 -14.5 -85.5t-1.5 -58.5t15.5 -33.5t35.5 -10.5q35 0 57 30t36 96h132q-22 -106 -81 -163t-169 -57q-51 0 -87 14t-55 46.5t-21 87t15 135.5q17 83 44.5 137.5
t63.5 87t78.5 45.5t90.5 13q95 0 132 -56.5t18 -151.5h-132z" />
    <glyph glyph-name="d" unicode="d" horiz-adv-x="500" 
d="M333 57h-2q-30 -38 -62 -54.5t-74 -16.5q-85 0 -111.5 66.5t4.5 216.5t85 216.5t139 66.5q39 0 63.5 -16t39.5 -48h2l47 226h138l-148 -714h-132zM226 269q-18 -88 -13.5 -132.5t49.5 -44.5q46 0 68.5 44.5t40.5 132.5q19 88 14.5 132.5t-50.5 44.5q-45 0 -67.5 -44.5
t-41.5 -132.5z" />
    <glyph glyph-name="e" unicode="e" horiz-adv-x="463" 
d="M373 330q5 31 7 54.5t-2 40t-15.5 25t-32.5 8.5t-36.5 -9.5t-27 -25t-19 -34.5t-11.5 -38l-4 -21h141zM215 248l-9 -43q-5 -24 -6 -46.5t3 -40t15 -28t30 -10.5q35 0 56 25t38 76h124q-23 -94 -79.5 -144.5t-155.5 -50.5q-75 0 -111.5 26t-48 67.5t-5.5 93t16 101.5
q11 54 28.5 104t48.5 89t78 62t117 23q60 0 94.5 -19.5t49 -55t12.5 -86t-15 -112.5l-7 -31h-273z" />
    <glyph glyph-name="f" unicode="f" horiz-adv-x="296" 
d="M168 444h-70l19 94h70l13 61q15 73 59.5 101t111.5 28q37 0 73 -3l-20 -98q-5 1 -14 1h-13q-29 0 -43 -10t-19 -33l-10 -47h80l-19 -94h-80l-92 -444h-138z" />
    <glyph glyph-name="g" unicode="g" horiz-adv-x="500" 
d="M225 252q-6 -28 -8.5 -53t1 -44.5t14.5 -31t33 -11.5q43 0 68 43t39 111q20 98 13 139t-48 41q-23 0 -39 -10t-28.5 -32.5t-23 -60t-21.5 -91.5zM560 538l-106 -511q-22 -107 -84.5 -159t-183.5 -52q-88 0 -127.5 37.5t-25.5 106.5h132q-5 -26 13 -41t43 -15
q42 0 64.5 27.5t31.5 69.5l14 71h-2q-27 -30 -61 -48t-67 -18q-41 0 -69 15t-42 47.5t-13.5 84t15.5 125.5q10 47 25.5 96t41 88.5t64 64.5t95.5 25q29 0 57 -16t39 -58h2l12 60h132z" />
    <glyph glyph-name="h" unicode="h" horiz-adv-x="500" 
d="M194 714h138l-48 -231h2q26 35 63 52t82 17q66 0 94 -36t11 -117l-82 -399h-138l77 371q8 42 -2.5 58.5t-41.5 16.5q-73 0 -91 -89l-74 -357h-138z" />
    <glyph glyph-name="i" unicode="i" horiz-adv-x="240" 
d="M201 722h138l-25 -118h-138zM162 538h138l-111 -538h-138z" />
    <glyph glyph-name="j" unicode="j" horiz-adv-x="240" 
d="M201 722h138l-25 -118h-138zM162 538h138l-119 -575q-7 -34 -19.5 -60t-34.5 -43.5t-54 -26.5t-78 -9q-12 0 -26.5 0.5t-29.5 1.5l21 100q6 -2 11 -2h11q18 0 29.5 5t19 15.5t12.5 26.5t10 39z" />
    <glyph glyph-name="k" unicode="k" horiz-adv-x="500" 
d="M337 714l-78 -377h2l180 201h152l-199 -212l111 -326h-152l-70 221l-62 -64l-32 -157h-138l148 714h138z" />
    <glyph glyph-name="l" unicode="l" horiz-adv-x="240" 
d="M199 714h138l-148 -714h-138z" />
    <glyph glyph-name="m" unicode="m" horiz-adv-x="758" 
d="M157 538h132l-11 -55h2q34 37 69.5 53t80.5 16q48 0 76 -22t30 -64h2q25 43 65 64.5t89 21.5q69 0 93 -41.5t8 -119.5l-81 -391h-138l78 376q7 34 -2 52t-38 18q-33 0 -57 -22t-34 -70l-73 -354h-138l78 376q7 34 -2 52t-38 18q-33 0 -57 -22t-34 -70l-73 -354h-138z" />
    <glyph glyph-name="n" unicode="n" horiz-adv-x="500" 
d="M157 538h132l-13 -63h2q30 40 69 58.5t84 18.5q66 0 94 -36t11 -117l-82 -399h-138l77 371q8 42 -2.5 58.5t-41.5 16.5q-73 0 -91 -89l-74 -357h-138z" />
    <glyph glyph-name="o" unicode="o" 
d="M221 269q-8 -41 -13.5 -76t-3 -60t14 -39t37.5 -14q42 0 67.5 44t45.5 145q21 101 14.5 145t-48.5 44q-26 0 -43.5 -14t-30.5 -39t-22 -60t-18 -76zM83 269q15 69 37 122t54 88.5t76.5 54t103.5 18.5q62 1 99.5 -16.5t54.5 -53.5t15.5 -89.5t-16.5 -123.5
q-14 -69 -35.5 -122t-54 -88.5t-77 -54t-103.5 -18.5q-63 -1 -100.5 16.5t-54 53.5t-15 89t15.5 124z" />
    <glyph glyph-name="p" unicode="p" horiz-adv-x="500" 
d="M157 538h132l-11 -57h2q30 38 62 54.5t74 16.5q85 0 111 -66.5t-5 -216.5t-84.5 -216.5t-138.5 -66.5q-39 0 -63.5 16t-39.5 48h-2l-47 -226h-138zM239 269q-18 -88 -13.5 -132.5t50.5 -44.5q45 0 67.5 44.5t40.5 132.5q19 88 14.5 132.5t-49.5 44.5q-46 0 -68.5 -44.5
t-41.5 -132.5z" />
    <glyph glyph-name="q" unicode="q" horiz-adv-x="500" 
d="M326 50h-2q-29 -32 -59.5 -48t-69.5 -16q-85 0 -111.5 66.5t4.5 216.5t85 216.5t139 66.5q42 0 67.5 -16.5t40.5 -54.5h2l11 57h132l-148 -714h-138zM371 269q19 88 14.5 132.5t-50.5 44.5q-45 0 -67.5 -44.5t-41.5 -132.5q-18 -88 -13.5 -132.5t49.5 -44.5
q46 0 68.5 44.5t40.5 132.5z" />
    <glyph glyph-name="r" unicode="r" horiz-adv-x="333" 
d="M157 538h132l-15 -72h2q29 39 64 62.5t78 23.5q6 0 12.5 -0.5t12.5 -1.5l-28 -132q-10 1 -20.5 1.5t-21.5 0.5q-18 0 -37 -5t-36 -16.5t-30 -30t-19 -45.5l-67 -323h-138z" />
    <glyph glyph-name="s" unicode="s" horiz-adv-x="444" 
d="M183 176l-4 -18q-7 -35 7 -56.5t49 -21.5q32 0 54 16t29 48q6 26 -6 39.5t-31 21.5l-90 35q-54 20 -74.5 56.5t-8.5 93.5q7 33 24 62.5t45.5 51.5t68.5 35t93 13q94 0 131 -40t21 -113l-4 -22h-124q8 42 -1 61.5t-43 19.5q-26 0 -48.5 -14.5t-28.5 -43.5q-5 -20 5 -36
t42 -27l77 -28q61 -22 80.5 -57.5t6.5 -96.5q-9 -42 -30.5 -74t-52.5 -53t-70 -31.5t-82 -10.5q-59 0 -94.5 12t-53.5 34.5t-20.5 54t5.5 70.5l4 19h124z" />
    <glyph glyph-name="t" unicode="t" horiz-adv-x="296" 
d="M219 692h138l-32 -154h80l-19 -94h-80l-61 -291q-6 -32 0.5 -45.5t36.5 -13.5q8 0 16 0.5t15 1.5l-19 -96l-45.5 -4t-46.5 -2q-41 0 -64.5 7t-34 23.5t-9.5 43.5t10 68l64 308h-70l19 94h70z" />
    <glyph glyph-name="u" unicode="u" horiz-adv-x="500" 
d="M335 63h-2q-30 -40 -69 -58.5t-84 -18.5q-66 0 -94.5 36t-11.5 117l83 399h138l-77 -371q-8 -42 2.5 -58.5t41.5 -16.5q73 0 91 89l74 357h138l-111 -538h-132z" />
    <glyph glyph-name="v" unicode="v" horiz-adv-x="444" 
d="M412 538h138l-246 -538h-160l-28 538h144l-3 -385h2z" />
    <glyph glyph-name="w" unicode="w" horiz-adv-x="704" 
d="M118 538h138l-16 -382h2l146 382h150l-8 -382h2l144 382h132l-227 -538h-157l8 382h-2l-146 -382h-160z" />
    <glyph glyph-name="x" unicode="x" horiz-adv-x="462" 
d="M416 538h144l-194 -261l89 -277h-144l-44 176l-116 -176h-144l203 277l-86 261h144l41 -162z" />
    <glyph glyph-name="y" unicode="y" horiz-adv-x="444" 
d="M30 -73q18 -3 36 -3q38 0 58.5 20t31.5 56l-40 538h144l3 -372h2l147 372h138l-234 -502q-33 -70 -58 -111.5t-52 -64t-60 -29.5t-81 -7h-56z" />
    <glyph glyph-name="z" unicode="z" horiz-adv-x="426" 
d="M46 106l281 320h-205l23 112h368l-22 -106l-281 -320h215l-23 -112h-378z" />
    <glyph glyph-name="braceleft" unicode="{" horiz-adv-x="315" 
d="M93 306q12 0 25 6t24.5 17t20.5 25.5t13 32.5l40 193q14 64 47.5 99t84.5 35h89l-21 -100h-30q-24 0 -36 -21.5t-18 -50.5l-34 -166q-10 -45 -36 -74.5t-59 -35.5l-1 -2q32 -6 45.5 -35.5t4.5 -74.5l-35 -166q-6 -29 -3 -50.5t27 -21.5h30l-21 -100h-89q-51 0 -70.5 35
t-5.5 99l40 193q7 35 -8.5 58t-40.5 23z" />
    <glyph glyph-name="bar" unicode="|" horiz-adv-x="222" 
d="M200 728h124l-154 -742h-124z" />
    <glyph glyph-name="braceright" unicode="}" horiz-adv-x="315" 
d="M8 -84h30q24 0 36 21.5t18 50.5l35 166q9 45 35 74.5t59 35.5l1 2q-32 6 -45.5 35.5t-3.5 74.5l34 166q6 29 3 50.5t-27 21.5h-30l21 100h89q51 0 70.5 -35t5.5 -99l-40 -193q-4 -18 -1.5 -32.5t9.5 -25.5t18 -17t23 -6l-17 -82q-12 0 -25 -6t-24.5 -17t-20.5 -25.5
t-13 -32.5l-40 -193q-14 -64 -47.5 -99t-84.5 -35h-88z" />
    <glyph glyph-name="asciitilde" unicode="~" horiz-adv-x="600" 
d="M581 243q-29 -38 -62.5 -62t-78.5 -24q-34 0 -59.5 9.5t-51.5 24.5q-19 11 -32 17.5t-23 10.5t-17.5 5t-15.5 1q-15 0 -30.5 -7t-30 -17.5t-26 -22.5t-17.5 -21l-14 106q29 38 62.5 62t78.5 24q53 0 103 -29q36 -23 55.5 -31t40.5 -8q15 0 30.5 7t29.5 17.5t26 22.5
t18 21z" />
    <glyph glyph-name="exclamdown" unicode="&#xa1;" horiz-adv-x="296" 
d="M190 538h138l-27 -132h-138zM90 56l78 283h100l-40 -283l-48 -232h-138z" />
    <glyph glyph-name="cent" unicode="&#xa2;" 
d="M219 -14q-39 2 -71 14.5t-51.5 43.5t-23 84.5t14.5 136.5q12 57 29.5 107t46 88.5t70.5 62.5t102 29l16 76h52l-16 -76q32 -2 61 -11.5t48.5 -32t26.5 -61t-5 -99.5h-132q3 15 5 31.5t0.5 31t-7.5 25.5t-18 16l-76 -366q16 9 27.5 23.5t19 31.5t12.5 35t8 33h132
q-20 -100 -72.5 -156t-146.5 -67l-19 -88h-52zM315 452q-35 -12 -53.5 -57.5t-34.5 -123.5l-12 -60.5t-6.5 -56t6 -44t24.5 -24.5z" />
    <glyph glyph-name="sterling" unicode="&#xa3;" 
d="M89 388h67q-27 87 -15 142q7 37 27 69.5t52 56.5t75 38t97 14q103 0 149 -48.5t26 -158.5h-132q5 25 5 43q0 31 -13.5 50.5t-46.5 19.5q-47 0 -70.5 -24.5t-29.5 -54.5q-2 -11 -1.5 -36t8.5 -54l16 -57h167l-17 -82h-141q3 -14 -3 -39q-5 -22 -13.5 -41.5t-23 -38
t-35.5 -37t-50 -39.5l3 -2q6 2 21 4.5t26 2.5q10 0 23.5 -4.5t27.5 -10.5t28.5 -10.5t27.5 -4.5q16 0 45.5 10t67.5 32l25 -94q-42 -23 -82 -35.5t-77 -12.5q-18 0 -39 5.5t-43.5 12.5t-46.5 12.5t-46 5.5q-25 0 -48 -6.5t-56 -21.5l-23 86q60 33 101.5 79.5t52.5 97.5
q5 25 -1 49h-102z" />
    <glyph glyph-name="fraction" unicode="&#x2044;" horiz-adv-x="167" 
d="M392 725h89l-562 -756h-89z" />
    <glyph glyph-name="yen" unicode="&#xa5;" 
d="M211 159h-142l17 82h142l9 43l-7 23h-131l17 82h92l-81 305h149l51 -269h2l168 269h144l-209 -305h92l-17 -82h-131l-15 -23l-9 -43h142l-17 -82h-142l-33 -159h-124z" />
    <glyph glyph-name="florin" unicode="&#x192;" 
d="M168 428h105l36 89q21 53 43.5 90.5t50.5 61t63 34.5t82 11q18 0 37.5 -0.5t36.5 -2.5l-38 -94q-8 2 -14.5 2.5t-13.5 0.5q-24 0 -40.5 -5.5t-29.5 -19t-24.5 -36.5t-25.5 -58l-31 -73h110l-32 -82h-111l-136 -342q-17 -42 -36.5 -75.5t-46 -57t-63.5 -35.5t-90 -12
q-23 0 -41.5 1.5t-28.5 5.5l39 91q15 -4 33 -4q22 0 37.5 5.5t27 17t21 30t20.5 45.5l132 330h-105z" />
    <glyph glyph-name="section" unicode="&#xa7;" horiz-adv-x="481" 
d="M309 218q20 -12 34 -25q31 22 45 40.5t17 34.5q5 26 -5.5 44t-45.5 38l-85 51q-32 -17 -49.5 -36.5t-21.5 -38.5q-3 -14 3 -29.5t20 -24.5zM177 37l-3 -15q-8 -38 7.5 -59t45.5 -21q35 0 55 21t25 46q6 28 -4 47.5t-42 36.5l-111 59q-51 27 -67.5 66.5t-6.5 87.5t42 85
t78 58q-51 45 -36 114q9 45 31.5 76t54.5 51t71.5 29t81.5 9q51 0 84.5 -12t52 -33.5t22.5 -51.5t-3 -65h-132q3 14 2.5 26.5t-6.5 22.5q-10 19 -51 19q-29 0 -49 -16.5t-25 -40.5q-3 -17 7.5 -34.5t42.5 -34.5l107 -56q21 -11 38 -25.5t28 -34t14.5 -45t-3.5 -58.5
q-4 -18 -14 -39t-24.5 -40.5t-32.5 -36t-37 -26.5q21 -20 29 -49.5t-1 -74.5q-18 -91 -80.5 -133t-159.5 -42q-103 0 -143 46.5t-23 127.5l3 15h132z" />
    <glyph glyph-name="currency" unicode="&#xa4;" 
d="M189 347q-13 -60 13 -94.5t83 -34.5t97 34.5t53 94.5q12 60 -14 94.5t-83 34.5t-97 -34.5t-52 -94.5zM35 169l60 50q-12 27 -16 59.5t4 68.5q7 35 24 67.5t41 60.5l-39 50l74 62l40 -50q32 19 66.5 29t69.5 10q36 0 66.5 -10.5t53.5 -28.5l62 50l48 -62l-61 -50
q27 -54 13 -128q-15 -71 -66 -128l40 -50l-74 -62l-41 51q-31 -19 -65.5 -29.5t-70.5 -10.5q-71 0 -120 40l-61 -51z" />
    <glyph glyph-name="quotesingle" unicode="'" horiz-adv-x="260" 
d="M216 714h124l-67 -321h-124z" />
    <glyph glyph-name="quotedblleft" unicode="&#x201c;" horiz-adv-x="463" 
d="M176 523q8 40 20.5 73.5t32.5 58t49 40t70 19.5l-15 -70q-27 -5 -44.5 -28t-23.5 -51l-3 -16h52l-33 -156h-132zM371 523q8 40 20.5 73.5t32.5 58t49 40t70 19.5l-15 -70q-27 -5 -44.5 -28t-23.5 -51l-3 -16h52l-33 -156h-132z" />
    <glyph glyph-name="guillemotleft" unicode="&#xab;" horiz-adv-x="426" 
d="M128 370l174 120l-27 -132l-93 -69l64 -69l-27 -132l-124 120zM301 370l174 120l-27 -132l-93 -69l64 -69l-27 -132l-124 120z" />
    <glyph glyph-name="guilsinglleft" unicode="&#x2039;" horiz-adv-x="241" 
d="M122 370l174 120l-27 -132l-93 -69l64 -69l-27 -132l-124 120z" />
    <glyph glyph-name="guilsinglright" unicode="&#x203a;" horiz-adv-x="241" 
d="M91 220l94 69l-65 69l27 132l124 -120l-33 -162l-174 -120z" />
    <glyph glyph-name="fi" unicode="&#xfb01;" horiz-adv-x="537" 
d="M168 444h-70l19 94h70l13 61q15 73 59.5 101t111.5 28q37 0 73 -3l-20 -98q-5 1 -14 1h-13q-29 0 -43 -10t-19 -33l-10 -47h80l-19 -94h-80l-92 -444h-138zM498 722h138l-25 -118h-138zM459 538h138l-111 -538h-138z" />
    <glyph glyph-name="fl" unicode="&#xfb02;" horiz-adv-x="537" 
d="M168 444h-70l19 94h70l13 61q15 73 59.5 101t111.5 28q37 0 73 -3l-20 -98q-5 1 -14 1h-13q-29 0 -43 -10t-19 -33l-10 -47h80l-19 -94h-80l-92 -444h-138zM498 722h138l-150 -722h-138z" />
    <glyph glyph-name="endash" unicode="&#x2013;" horiz-adv-x="500" 
d="M71 345h500l-23 -112h-500z" />
    <glyph glyph-name="dagger" unicode="&#x2020;" 
d="M319 714h138l-41 -198h168l-24 -112h-168l-112 -542h-138l112 542h-168l24 112h168z" />
    <glyph glyph-name="daggerdbl" unicode="&#x2021;" 
d="M181 52h-168l24 112h168l51 248h-168l23 112h168l40 190h138l-40 -190h168l-23 -112h-168l-51 -248h168l-24 -112h-168l-39 -190h-138z" />
    <glyph glyph-name="periodcentered" unicode="&#xb7;" horiz-adv-x="240" 
d="M81 282q4 20 15.5 38t27 31t35 20.5t39.5 7.5q42 0 63.5 -27.5t13.5 -69.5q-4 -20 -15.5 -38t-27 -31t-35 -20.5t-39.5 -7.5q-42 0 -63.5 27.5t-13.5 69.5z" />
    <glyph glyph-name="paragraph" unicode="&#xb6;" 
d="M251 335q-90 0 -125.5 47.5t-16.5 138.5q12 57 34 94.5t52.5 59.5t69 30.5t82.5 8.5h268l-177 -852h-106l157 758h-73l-157 -758h-106z" />
    <glyph glyph-name="bullet" unicode="&#x2022;" horiz-adv-x="500" 
d="M146 357q7 37 28 69.5t50 56.5t64.5 38t72.5 14t66.5 -14t48.5 -38t26 -56.5t0 -69.5q-8 -37 -28.5 -69.5t-50 -56.5t-64.5 -38t-72 -14t-66.5 14t-48.5 38t-26.5 56.5t0.5 69.5z" />
    <glyph glyph-name="quotesinglbase" unicode="&#x201a;" horiz-adv-x="260" 
d="M228 156l-27 -130q-8 -40 -20.5 -73.5t-32.5 -58t-49 -40t-70 -19.5l15 70q27 5 44.5 28t23.5 51l4 16h-52l32 156h132z" />
    <glyph glyph-name="quotedblbase" unicode="&#x201e;" horiz-adv-x="463" 
d="M100 156h132l-27 -130q-8 -40 -20.5 -73.5t-32.5 -58t-49 -40t-70 -19.5l15 70q27 5 44.5 28t23.5 51l4 16h-52zM295 156h132l-27 -130q-8 -40 -20.5 -73.5t-32.5 -58t-49 -40t-70 -19.5l15 70q27 5 44.5 28t23.5 51l4 16h-52z" />
    <glyph glyph-name="quotedblright" unicode="&#x201d;" horiz-adv-x="463" 
d="M411 714h132l-27 -130q-8 -40 -20.5 -73.5t-32.5 -58t-49 -40t-70 -19.5l15 70q27 5 44.5 28t23.5 51l4 16h-52zM216 714h132l-27 -130q-8 -40 -20.5 -73.5t-32.5 -58t-49 -40t-70 -19.5l15 70q27 5 44.5 28t23.5 51l4 16h-52z" />
    <glyph glyph-name="guillemotright" unicode="&#xbb;" horiz-adv-x="426" 
d="M270 220l94 69l-65 69l27 132l124 -120l-33 -162l-174 -120zM97 220l94 69l-65 69l27 132l124 -120l-33 -162l-174 -120z" />
    <glyph glyph-name="ellipsis" unicode="&#x2026;" horiz-adv-x="1000" 
d="M931 156l-32 -156h-132l32 156h132zM598 156l-32 -156h-132l32 156h132zM265 156l-32 -156h-132l32 156h132z" />
    <glyph glyph-name="perthousand" unicode="&#x2030;" horiz-adv-x="1093" 
d="M684 725h89l-563 -756h-89zM571 181q-12 -60 -11.5 -89.5t30.5 -29.5t43.5 29.5t25.5 89.5q11 54 10 82.5t-31 28.5t-43 -28.5t-24 -82.5zM464 177q10 48 23.5 84t35 60t53 35.5t78.5 11.5q46 0 73 -11.5t38.5 -35.5t10 -60t-11.5 -84t-23.5 -84t-34.5 -60t-53 -35.5
t-78 -11.5q-47 0 -73.5 11.5t-38.5 35.5t-10.5 60t11.5 84zM241 521q-13 -60 -12 -89.5t31 -29.5t43 29.5t26 89.5q11 54 10 82.5t-31 28.5t-43 -28.5t-24 -82.5zM134 517q10 48 23.5 84t35 60t53 35.5t78.5 11.5q46 0 73 -11.5t38.5 -35.5t10 -60t-11.5 -84t-23.5 -84
t-35 -60t-53.5 -35.5t-78 -11.5q-47 0 -73.5 11.5t-38 35.5t-10 60t11.5 84zM802 177q10 48 23.5 84t35 60t53 35.5t78.5 11.5q46 0 73 -11.5t38.5 -35.5t10 -60t-11.5 -84t-23.5 -84t-34.5 -60t-53 -35.5t-78 -11.5q-47 0 -73.5 11.5t-38.5 35.5t-10.5 60t11.5 84zM909 181
q-12 -60 -11.5 -89.5t30.5 -29.5t43.5 29.5t25.5 89.5q11 54 10 82.5t-31 28.5t-43 -28.5t-24 -82.5z" />
    <glyph glyph-name="questiondown" unicode="&#xbf;" horiz-adv-x="481" 
d="M265 406l27 132h138l-27 -132h-138zM454 45l-5 -23q-9 -45 -29.5 -83t-51 -65t-71 -42.5t-89.5 -15.5q-105 0 -147 52.5t-24 140.5q9 42 30 78t66 78l49 45q32 29 48.5 53t24.5 62l3 15h124l-8 -39q-5 -25 -12.5 -45.5t-19 -39t-27 -36t-36.5 -36.5l-47 -43
q-26 -23 -39.5 -49.5t-20.5 -56.5q-8 -38 4.5 -61.5t46.5 -23.5q38 0 60.5 30.5t33.5 79.5l5 25h132z" />
    <glyph glyph-name="grave" unicode="`" horiz-adv-x="222" 
d="M205 602l-68 144h138l24 -144h-94z" />
    <glyph glyph-name="acute" unicode="&#xb4;" horiz-adv-x="222" 
d="M253 746h138l-128 -144h-94z" />
    <glyph glyph-name="circumflex" unicode="&#x2c6;" horiz-adv-x="222" 
d="M192 746h144l48 -144h-106l-28 85l-66 -85h-100z" />
    <glyph glyph-name="tilde" unicode="&#x2dc;" horiz-adv-x="222" 
d="M79 611q21 60 51 92t68 32q28 0 42 -7l43 -21q13 -6 29 -6q14 0 24 13t12 23h72q-9 -27 -21.5 -49.5t-27.5 -39t-33 -26t-37 -9.5q-16 0 -31 5.5t-29 11.5l-27 11.5t-25 5.5q-24 0 -40 -36h-70z" />
    <glyph glyph-name="macron" unicode="&#xaf;" horiz-adv-x="222" 
d="M405 712l-16 -76h-294l16 76h294z" />
    <glyph glyph-name="breve" unicode="&#x2d8;" horiz-adv-x="222" 
d="M190 745q-3 -29 14.5 -47t46.5 -18t53.5 18t33.5 47h65q-5 -20 -16.5 -44.5t-31.5 -46t-49.5 -36t-70.5 -14.5t-64.5 14.5t-35 36t-13 46t2.5 44.5h65z" />
    <glyph glyph-name="dotaccent" unicode="&#x2d9;" horiz-adv-x="222" 
d="M317 733l-25 -118h-112l25 118h112z" />
    <glyph glyph-name="dieresis" unicode="&#xa8;" horiz-adv-x="222" 
d="M291 733h112l-25 -118h-112zM119 733h112l-25 -118h-112z" />
    <glyph glyph-name="ring" unicode="&#x2da;" horiz-adv-x="222" 
d="M197 690q-10 -58 46 -58q24 0 44.5 17t25.5 41q10 58 -46 58q-24 0 -44.5 -17t-25.5 -41zM141 690q11 50 50.5 80t87.5 30q46 0 73 -29.5t17 -80.5q-5 -24 -18.5 -45t-32.5 -35.5t-41.5 -22t-45.5 -5.5q-23 -2 -42 5.5t-31.5 22t-17.5 35t1 45.5z" />
    <glyph glyph-name="cedilla" unicode="&#xb8;" horiz-adv-x="222" 
d="M146 0l-50 -58q10 3 17.5 4t19.5 1q16 0 29 -4.5t22 -13.5t12.5 -22.5t-0.5 -31.5q-10 -42 -47.5 -67t-98.5 -25q-28 0 -50 4.5t-45 14.5l28 46q17 -9 32 -12t33 -3q21 0 37.5 10t20.5 22q4 15 -6.5 24.5t-30.5 9.5q-11 0 -18.5 -1.5t-16.5 -4.5l-18 20l76 87h54z" />
    <glyph glyph-name="hungarumlaut" unicode="&#x2dd;" horiz-adv-x="222" 
d="M336 746h138l-128 -144h-94zM170 746h138l-128 -144h-94z" />
    <glyph glyph-name="ogonek" unicode="&#x2db;" horiz-adv-x="222" 
d="M199 -175q-36 -25 -63 -33.5t-61 -8.5q-28 0 -45.5 7.5t-26.5 19t-11 26.5t1 30q9 36 41.5 66.5t89.5 67.5h63l-45.5 -43t-25.5 -26q-15 -18 -22.5 -30t-10.5 -25q-4 -13 3.5 -20.5t21.5 -7.5q13 0 24 4t31 16z" />
    <glyph glyph-name="caron" unicode="&#x2c7;" horiz-adv-x="222" 
d="M114 746h106l29 -85l65 85h100l-108 -144h-144z" />
    <glyph glyph-name="emdash" unicode="&#x2014;" horiz-adv-x="1000" 
d="M71 345h1000l-23 -112h-1000z" />
    <glyph glyph-name="AE" unicode="&#xc6;" horiz-adv-x="759" 
d="M409 269l70 333h-9l-181 -333h120zM412 714h463l-25 -118h-235l-35 -168h220l-24 -118h-220l-40 -192h245l-24 -118h-383l31 151h-159l-81 -151h-150z" />
    <glyph glyph-name="ordfeminine" unicode="&#xaa;" horiz-adv-x="314" 
d="M304 537q-10 -6 -20 -9.5t-18 -5.5q-27 -5 -40.5 -17t-17.5 -32q-4 -17 1 -29.5t22 -12.5q8 0 17.5 2.5t18.5 8t15.5 14.5t9.5 22zM383 437q-5 -23 -5.5 -35.5t3.5 -27.5h-100q-2 8 -2.5 17.5t-0.5 17.5q-22 -26 -45 -34t-58 -8q-26 0 -41 8.5t-22.5 21.5t-8.5 29.5
t2 32.5q10 48 34.5 70t75.5 32l61 12q21 5 30.5 13t12.5 21q6 37 -30 37q-20 0 -32.5 -11t-16.5 -28l-2 -9h-94l3 13q12 56 54.5 77.5t103.5 21.5q43 0 68 -7.5t36.5 -20.5t12.5 -31t-3 -40z" />
    <glyph glyph-name="Lslash" unicode="&#x141;" horiz-adv-x="463" 
d="M103 256l-57 -31l22 106l57 31l73 352h144l-55 -262l143 79l-22 -106l-143 -79l-47 -228h255l-24 -118h-399z" />
    <glyph glyph-name="Oslash" unicode="&#xd8;" horiz-adv-x="556" 
d="M121 40q-20 23 -29 55.5t-9 72.5q0 42 7.5 88.5t18.5 100.5q17 81 39 149.5t57 117.5t89 76.5t135 27.5q38 0 66 -6t50 -18l39 61l43 -21l-44 -70q20 -23 28.5 -55t8.5 -74q0 -40 -7 -87t-18 -101q-17 -81 -39 -149.5t-57 -117.5t-89 -76.5t-135 -27.5q-76 0 -116 24
l-39 -61l-44 21zM234 129q13 -37 63 -37q32 0 54.5 14.5t39.5 46t31 82t29 122.5q9 46 15.5 82.5t8.5 65.5h-2zM469 586q-14 36 -62 36q-32 0 -54.5 -14.5t-39.5 -46.5t-31 -82t-29 -122q-10 -48 -16.5 -84t-8.5 -64h2z" />
    <glyph glyph-name="OE" unicode="&#x152;" horiz-adv-x="778" 
d="M253 357q-15 -71 -22 -121.5t-3.5 -82.5t20 -46.5t49.5 -14.5q32 0 52.5 13t35.5 44t28 82t29 126t24.5 126t6 82t-18 44t-47.5 13q-33 0 -55.5 -14.5t-39.5 -46.5t-30.5 -82.5t-28.5 -121.5zM871 596h-242l-35 -168h227l-24 -118h-227l-40 -192h250l-24 -118h-373l8 41
h-2q-9 -13 -24 -23.5t-33.5 -17.5t-38.5 -10.5t-38 -3.5q-78 0 -116.5 32.5t-49.5 85.5t-2.5 121t23.5 140q15 69 36 134.5t54.5 116.5t82 81.5t119.5 30.5q19 0 37.5 -2.5t34.5 -8.5t28.5 -16t18.5 -25h2l8 38h365z" />
    <glyph glyph-name="ordmasculine" unicode="&#xba;" horiz-adv-x="314" 
d="M223 537q-5 -23 -7.5 -42.5t-1 -33.5t9 -22t22.5 -8q25 0 40.5 24.5t26.5 81.5q12 57 7 82t-30 25q-16 0 -26.5 -8t-18 -22.5t-12.5 -34t-10 -42.5zM123 537q9 42 23 74t35 53.5t51 32.5t72 11q43 1 69 -9.5t38 -32t11.5 -54t-9.5 -75.5q-17 -83 -57.5 -126.5
t-122.5 -43.5q-66 -2 -92.5 22.5t-26.5 72.5q0 33 9 75z" />
    <glyph glyph-name="ae" unicode="&#xe6;" horiz-adv-x="722" 
d="M121 373l3 13q10 46 31.5 78t51 51.5t65.5 28t75 8.5q54 0 83 -13.5t43 -50.5q21 31 58 47.5t82 16.5q60 0 94 -19.5t48.5 -55t12.5 -86t-15 -112.5l-7 -31h-271l-9 -43q-5 -24 -6 -46.5t3 -40t14.5 -28t29.5 -10.5q34 0 55 25t38 76h124q-23 -94 -80 -144.5t-154 -50.5
q-37 0 -63 8t-42.5 21t-25.5 29.5t-12 34.5q-23 -30 -44 -48.5t-43.5 -28t-48 -13t-57.5 -3.5q-36 0 -58 14t-33 36t-12 49.5t5 54.5q8 38 21.5 65.5t34 47t49 32.5t66.5 23l82 21q32 8 47.5 22t20.5 41q7 31 -4 48.5t-46 17.5q-32 0 -52 -19t-27 -51l-3 -15h-124zM631 330
q5 31 7 54.5t-2 40t-15 25t-32 8.5q-20 0 -35.5 -9.5t-27 -25t-19 -34.5t-11.5 -38l-4 -21h139zM351 269q-16 -11 -33 -17.5t-31 -9.5q-45 -9 -66.5 -30t-29.5 -57q-7 -31 0.5 -53t35.5 -22q29 0 60 19t42 64z" />
    <glyph glyph-name="dotlessi" unicode="&#x131;" horiz-adv-x="240" 
d="M162 538h138l-111 -538h-138z" />
    <glyph glyph-name="lslash" unicode="&#x142;" horiz-adv-x="240" 
d="M109 282l-72 -42l19 88l71 42l72 344h138l-53 -253l72 41l-18 -88l-72 -41l-77 -373h-138z" />
    <glyph glyph-name="oslash" unicode="&#xf8;" 
d="M97 35q-28 34 -29.5 92t15.5 142q15 69 37 122t54 88.5t76.5 54t103.5 18.5q67 1 105 -21l47 65l40 -23l-52 -70q28 -34 29 -92t-16 -142q-14 -69 -35.5 -122t-54 -88.5t-77 -54t-103.5 -18.5q-69 -2 -105 21l-48 -65l-39 23zM209 113q9 -33 47 -33q42 0 67.5 44
t45.5 145q11 50 15 82h-2zM381 424q-9 34 -46 34q-26 0 -43.5 -14t-30.5 -39t-22 -60t-18 -76q-10 -46 -15 -83h2z" />
    <glyph glyph-name="oe" unicode="&#x153;" horiz-adv-x="741" 
d="M648 330q5 31 7 54.5t-2 40t-15.5 25t-32.5 8.5t-36.5 -9.5t-27 -25t-19 -34.5t-11.5 -38l-4 -21h141zM259 80q41 0 66 44t45 145q21 101 14.5 145t-48.5 44q-26 0 -43.5 -14t-30.5 -39t-22 -60t-18 -76q-8 -41 -13 -76t-3 -60t14.5 -39t38.5 -14zM490 248l-9 -43
q-5 -24 -6 -46.5t3 -40t15 -28t30 -10.5q35 0 56 25t38 76h124q-23 -94 -78.5 -144.5t-148.5 -50.5q-32 0 -54 6.5t-36.5 18t-22.5 25.5t-11 29q-23 -38 -67.5 -58.5t-96.5 -20.5q-58 0 -92.5 18t-50 53.5t-14.5 88.5t15 123q15 69 37 122t54 88.5t76.5 54t103.5 18.5
q57 0 86 -18.5t42 -56.5q28 37 67 56t79 19q60 0 94.5 -19.5t49 -55t12.5 -86t-15 -112.5l-7 -31h-273z" />
    <glyph glyph-name="germandbls" unicode="&#xdf;" horiz-adv-x="500" 
d="M41 0l109 527q22 105 83.5 153t170.5 48q96 0 137 -43t24 -128q-11 -56 -36.5 -90t-82.5 -57l-1 -2q60 -10 74 -60.5t-3 -131.5q-8 -37 -22.5 -76t-40.5 -71.5t-65.5 -53.5t-96.5 -21q-17 0 -35.5 1t-29.5 3l20 94q9 -4 20 -4q27 0 46 10t32 29t22 46t16 61q11 55 1 88
t-56 33h-25l20 94h17q36 0 56.5 26.5t29.5 68.5q3 18 3 34t-4.5 28.5t-16 20t-30.5 7.5q-41 0 -60.5 -31t-29.5 -79l-108 -524h-138z" />
    <glyph glyph-name="onesuperior" unicode="&#xb9;" horiz-adv-x="312" 
d="M233 570h-91l15 70h8q46 0 77.5 16.5t45.5 51.5h86l-89 -428h-112z" />
    <glyph glyph-name="logicalnot" unicode="&#xac;" horiz-adv-x="600" 
d="M491 300h-382l26 124h506l-68 -326h-124z" />
    <glyph glyph-name="mu" unicode="&#xb5;" horiz-adv-x="500" 
d="M427 538h138l-111 -538h-132l13 63h-2q-30 -40 -63.5 -58.5t-58.5 -18.5q-11 0 -18 2.5t-11 5.5l-35 -170h-138l148 714h138l-77 -371q-8 -42 2.5 -58.5t41.5 -16.5q73 0 91 89z" />
    <glyph glyph-name="trademark" unicode="&#x2122;" horiz-adv-x="990" 
d="M271 620h-112l20 94h336l-20 -94h-112l-66 -320h-112zM963 584h-2l-154 -284h-100l-36 284h-2l-59 -284h-106l86 414h169l31 -250h2l135 250h169l-86 -414h-106z" />
    <glyph glyph-name="Eth" unicode="&#xd0;" horiz-adv-x="574" 
d="M288 421h93l-22 -106h-93l-43 -209h64q37 0 63.5 13t45.5 43t34 79t30 122q13 61 18.5 106.5t-0.5 76.5t-27.5 46.5t-62.5 15.5h-61zM122 315h-57l22 106h57l61 293h236q75 0 116 -24.5t57 -70t11.5 -109.5t-20.5 -143q-20 -95 -45.5 -164t-63 -114t-89 -67t-123.5 -22
h-227z" />
    <glyph glyph-name="onehalf" unicode="&#xbd;" horiz-adv-x="721" 
d="M409 0q11 57 43.5 102.5t96.5 85.5l57 36q33 21 47 39.5t19 41.5q4 20 -4.5 33.5t-28.5 13.5q-17 0 -28 -7t-18.5 -17.5t-12 -23.5t-7.5 -25h-106l5 25q12 60 55 92t130 32q81 0 111 -29.5t19 -78.5q-8 -41 -28 -70.5t-65 -59.5l-66 -44q-31 -20 -46 -36t-20 -28h176
l-17 -82h-312zM209 570h-91l15 70h8q46 0 77.5 16.5t45.5 51.5h86l-89 -428h-112zM628 725h89l-563 -756h-89z" />
    <glyph glyph-name="plusminus" unicode="&#xb1;" horiz-adv-x="600" 
d="M72 124h506l-25 -124h-506zM343 506h124l-23 -108h191l-26 -124h-191l-22 -108h-124l22 108h-191l26 124h191z" />
    <glyph glyph-name="Thorn" unicode="&#xde;" horiz-adv-x="519" 
d="M248 263h64q43 0 75 26t43 81q11 54 -6 82t-71 28h-60zM198 714h144l-27 -128h108q55 0 88.5 -18.5t50.5 -48.5t19 -68.5t-6 -78.5q-24 -111 -96.5 -163t-175.5 -52h-77l-32 -157h-144z" />
    <glyph glyph-name="onequarter" unicode="&#xbc;" horiz-adv-x="721" 
d="M209 570h-91l15 70h8q46 0 77.5 16.5t45.5 51.5h86l-89 -428h-112zM652 725h89l-563 -756h-89zM435 168l206 260h124l-55 -269h44l-17 -82h-44l-16 -77h-106l16 77h-170zM634 304h-2l-116 -145h88z" />
    <glyph glyph-name="divide" unicode="&#xf7;" horiz-adv-x="600" 
d="M211 41q4 20 15.5 38t27 31t35 20.5t39.5 7.5q42 0 63.5 -27.5t13.5 -69.5q-4 -20 -15.5 -38t-27 -31t-35 -20.5t-39.5 -7.5q-42 0 -63.5 27.5t-13.5 69.5zM299 465q4 20 15.5 38t27 31t35 20.5t39.5 7.5q42 0 63.5 -27.5t13.5 -69.5q-4 -20 -15.5 -38t-27 -31t-35 -20.5
t-39.5 -7.5q-42 0 -63.5 27.5t-13.5 69.5zM112 315h506l-26 -124h-506z" />
    <glyph glyph-name="brokenbar" unicode="&#xa6;" horiz-adv-x="222" 
d="M200 728h124l-56 -271h-124zM102 257h124l-56 -271h-124z" />
    <glyph glyph-name="degree" unicode="&#xb0;" horiz-adv-x="400" 
d="M244 560q-6 -30 10.5 -51t46.5 -21t55.5 21t31.5 51t-10.5 51t-46.5 21t-55.5 -21t-31.5 -51zM168 560q6 31 23 58t41.5 47t54 31.5t60.5 11.5t55.5 -11.5t40 -31.5t21.5 -47t0 -58t-23 -58t-41.5 -47t-54 -31.5t-60.5 -11.5t-55.5 11.5t-40 31.5t-21.5 47t0 58z" />
    <glyph glyph-name="thorn" unicode="&#xfe;" horiz-adv-x="500" 
d="M194 714h138l-48 -233h2q26 38 57 54.5t73 16.5q85 0 111 -66.5t-5 -216.5t-84.5 -216.5t-138.5 -66.5q-39 0 -63.5 16t-39.5 48h-2l-47 -226h-138zM239 269q-18 -88 -13.5 -132.5t50.5 -44.5q45 0 67.5 44.5t40.5 132.5q19 88 14.5 132.5t-49.5 44.5q-46 0 -68.5 -44.5
t-41.5 -132.5z" />
    <glyph glyph-name="threequarters" unicode="&#xbe;" horiz-adv-x="721" 
d="M192 416q-5 -28 1 -47.5t34 -19.5q24 0 37.5 15.5t18.5 37.5q1 5 1.5 10.5t0.5 10.5q0 17 -10 29.5t-39 12.5h-28l15 70h28q29 0 44.5 16.5t20.5 36.5q4 19 -5 31.5t-27 12.5q-28 0 -41 -18t-18 -42h-100q15 69 58 103q42 33 116 33q75 0 106 -26t19 -83
q-8 -39 -31.5 -63.5t-58.5 -31.5v-2q43 -8 56 -34t5 -66q-5 -21 -16 -44t-33 -42t-57.5 -31t-89.5 -12q-75 0 -101.5 35t-13.5 98l2 10h106zM691 725h89l-563 -756h-89zM604 159l30 145h-2l-116 -145h88zM435 168l206 260h124l-55 -269h44l-17 -82h-44l-16 -77h-106l16 77
h-170z" />
    <glyph glyph-name="twosuperior" unicode="&#xb2;" horiz-adv-x="312" 
d="M58 280q12 57 44 102.5t96 85.5l57 36q33 21 47 39.5t19 41.5q5 20 -4 33.5t-29 13.5q-17 0 -28 -7t-18.5 -17.5t-12 -23.5t-7.5 -25h-106l5 25q12 60 55.5 92t130.5 32q81 0 110.5 -29.5t18.5 -78.5q-8 -41 -27.5 -70.5t-65.5 -59.5l-66 -44q-31 -20 -46 -36t-20 -28
h176l-17 -82h-312z" />
    <glyph glyph-name="registered" unicode="&#xae;" horiz-adv-x="800" 
d="M215 357q-11 -54 -1.5 -102.5t36.5 -84.5t70 -57t99 -21t108 21t94 57t71.5 84.5t40.5 102.5t1.5 102.5t-36.5 84.5t-70 57t-99 21t-108 -21t-94 -57t-71.5 -84.5t-40.5 -102.5zM103 357q16 77 59 144.5t104 118t134.5 79.5t150.5 29t138.5 -29t101.5 -79.5t55 -118
t-1 -144.5t-59.5 -144.5t-104 -118t-134.5 -79.5t-150 -29q-77 0 -138.5 29t-101.5 79.5t-55 118t1 144.5zM423 388h67q29 0 50 9t28 41q3 16 -2 26t-15 15t-23 6.5t-26 1.5h-58zM370 557h156q78 0 109.5 -32t19.5 -92q-11 -51 -45.5 -78.5t-77.5 -32.5l65 -165h-96l-60 161
h-32l-34 -161h-88z" />
    <glyph glyph-name="minus" unicode="&#x2212;" horiz-adv-x="600" 
d="M112 315h506l-26 -124h-506z" />
    <glyph glyph-name="eth" unicode="&#xf0;" 
d="M195 625l86 45l-27 33l-26 31l117 61l54 -63l84 45l34 -42l-86 -45q31 -44 52 -89.5t31 -96t8.5 -108.5t-15.5 -127t-35.5 -122t-54 -88.5t-77 -54t-103.5 -18.5q-63 -1 -100.5 16.5t-54 53.5t-15 89t15.5 124q12 60 32.5 108.5t49 83t65.5 53t82 18.5q17 0 34 -6t31 -20
l2 2q-12 29 -29.5 59.5t-37.5 60.5l-86 -45zM220 262q-8 -40 -13 -73.5t-2.5 -57.5t14 -37.5t37.5 -13.5q42 0 67 42.5t45 139.5q20 93 12.5 134.5t-49.5 41.5q-26 0 -43.5 -13.5t-29.5 -37t-21 -56t-17 -69.5z" />
    <glyph glyph-name="multiply" unicode="&#xd7;" horiz-adv-x="600" 
d="M267 253l-124 155l104 86l123 -156l187 156l68 -86l-188 -155l124 -155l-104 -86l-123 156l-187 -156l-68 86z" />
    <glyph glyph-name="threesuperior" unicode="&#xb3;" horiz-adv-x="312" 
d="M192 416q-5 -28 1 -47.5t34 -19.5q24 0 37.5 15.5t18.5 37.5q1 5 1.5 10.5t0.5 10.5q0 17 -10 29.5t-39 12.5h-28l15 70h28q29 0 44.5 16.5t20.5 36.5q4 19 -5 31.5t-27 12.5q-28 0 -41 -18t-18 -42h-100q15 69 58 103q42 33 116 33q75 0 106 -26t19 -83
q-8 -39 -31.5 -63.5t-58.5 -31.5v-2q43 -8 56 -34t5 -66q-5 -21 -16 -44t-33 -42t-57.5 -31t-89.5 -12q-75 0 -101.5 35t-13.5 98l2 10h106z" />
    <glyph glyph-name="copyright" unicode="&#xa9;" horiz-adv-x="800" 
d="M103 357q16 77 59 144.5t104 118t134.5 79.5t150.5 29t138.5 -29t101.5 -79.5t55 -118t-1 -144.5t-59.5 -144.5t-104 -118t-134.5 -79.5t-150 -29q-77 0 -138.5 29t-101.5 79.5t-55 118t1 144.5zM215 357q-11 -54 -1.5 -102.5t36.5 -84.5t70 -57t99 -21t108 21t94 57
t71.5 84.5t40.5 102.5t1.5 102.5t-36.5 84.5t-70 57t-99 21t-108 -21t-94 -57t-71.5 -84.5t-40.5 -102.5zM656 298q-13 -38 -36 -67t-51.5 -49t-61 -30t-63.5 -10q-48 0 -82.5 17t-55.5 46.5t-27 69.5t3 85q10 46 32 86t54.5 69t74 46t89.5 17q33 0 61.5 -10t48.5 -29
t30 -48t7 -66h-96q-2 29 -19 48t-55 19q-52 0 -86.5 -37.5t-46.5 -94.5q-6 -27 -3.5 -51t12.5 -42t27 -28.5t41 -10.5q37 0 64.5 19t38.5 51h100z" />
    <glyph glyph-name="Aacute" unicode="&#xc1;" horiz-adv-x="556" 
d="M263 269h140l-2 321h-2zM337 714h178l41 -714h-150l-2 151h-190l-64 -151h-150zM459 900h138l-128 -144h-94z" />
    <glyph glyph-name="Acircumflex" unicode="&#xc2;" horiz-adv-x="556" 
d="M263 269h140l-2 321h-2zM337 714h178l41 -714h-150l-2 151h-190l-64 -151h-150zM393 900h144l48 -144h-106l-28 85l-66 -85h-100z" />
    <glyph glyph-name="Adieresis" unicode="&#xc4;" horiz-adv-x="556" 
d="M263 269h140l-2 321h-2zM337 714h178l41 -714h-150l-2 151h-190l-64 -151h-150zM491 887h112l-25 -118h-112zM319 887h112l-25 -118h-112z" />
    <glyph glyph-name="Agrave" unicode="&#xc0;" horiz-adv-x="556" 
d="M263 269h140l-2 321h-2zM337 714h178l41 -714h-150l-2 151h-190l-64 -151h-150zM383 756l-68 144h138l24 -144h-94z" />
    <glyph glyph-name="Aring" unicode="&#xc5;" horiz-adv-x="556" 
d="M263 269h140l-2 321h-2zM337 714h178l41 -714h-150l-2 151h-190l-64 -151h-150zM384 844q-10 -58 46 -58q24 0 44.5 17t25.5 41q10 58 -46 58q-24 0 -44.5 -17t-25.5 -41zM328 844q11 50 50.5 80t87.5 30q46 0 73 -29.5t17 -80.5q-5 -24 -18.5 -45t-32.5 -35.5t-41.5 -22
t-45.5 -5.5q-23 -2 -42 5.5t-31.5 22t-17.5 35t1 45.5z" />
    <glyph glyph-name="Atilde" unicode="&#xc3;" horiz-adv-x="556" 
d="M263 269h140l-2 321h-2zM337 714h178l41 -714h-150l-2 151h-190l-64 -151h-150zM253 765q21 60 51 92t68 32q28 0 42 -7l43 -21q13 -6 29 -6q14 0 24 13t12 23h72q-9 -27 -21.5 -49.5t-27.5 -39t-33 -26t-37 -9.5q-16 0 -31 5.5t-29 11.5l-27 11.5t-25 5.5q-24 0 -40 -36
h-70z" />
    <glyph glyph-name="Ccedilla" unicode="&#xc7;" horiz-adv-x="537" 
d="M453 473q16 78 5 113.5t-60 35.5q-27 0 -47.5 -14.5t-37 -47t-31.5 -85t-31 -128.5q-17 -81 -21.5 -131t1.5 -77.5t21 -37t38 -9.5q19 0 37 6.5t34 26t30 55t26 93.5h144q-9 -44 -22 -84t-32.5 -74t-47 -61t-64.5 -45q-41 -19 -100 -22l-38 -45q10 3 17.5 4t19.5 1
q16 0 29 -4.5t22 -13.5t12.5 -22.5t-0.5 -31.5q-10 -42 -47.5 -67t-98.5 -25q-28 0 -50 4.5t-45 14.5l28 46q17 -9 32 -12t33 -3q21 0 37.5 10t20.5 22q4 15 -6.5 24.5t-30.5 9.5q-11 0 -18.5 -1.5t-16.5 -4.5l-18 20l65 74q-55 4 -91 26q-32 21 -47.5 54.5t-18.5 77t4 97
t20 115.5q17 81 39 149.5t57 117.5t89 76.5t135 27.5q77 0 115.5 -25t53 -63.5t11 -83t-11.5 -83.5h-144z" />
    <glyph glyph-name="Eacute" unicode="&#xc9;" horiz-adv-x="481" 
d="M597 714l-25 -118h-255l-35 -168h240l-24 -118h-240l-40 -192h265l-24 -118h-409l148 714h399zM430 900h138l-128 -144h-94z" />
    <glyph glyph-name="Ecircumflex" unicode="&#xca;" horiz-adv-x="481" 
d="M597 714l-25 -118h-255l-35 -168h240l-24 -118h-240l-40 -192h265l-24 -118h-409l148 714h399zM360 900h144l48 -144h-106l-28 85l-66 -85h-100z" />
    <glyph glyph-name="Edieresis" unicode="&#xcb;" horiz-adv-x="481" 
d="M597 714l-25 -118h-255l-35 -168h240l-24 -118h-240l-40 -192h265l-24 -118h-409l148 714h399zM457 887h112l-25 -118h-112zM285 887h112l-25 -118h-112z" />
    <glyph glyph-name="Egrave" unicode="&#xc8;" horiz-adv-x="481" 
d="M597 714l-25 -118h-255l-35 -168h240l-24 -118h-240l-40 -192h265l-24 -118h-409l148 714h399zM368 756l-68 144h138l24 -144h-94z" />
    <glyph glyph-name="Iacute" unicode="&#xcd;" horiz-adv-x="258" 
d="M57 0l148 714h144l-148 -714h-144zM296 900h138l-128 -144h-94z" />
    <glyph glyph-name="Icircumflex" unicode="&#xce;" horiz-adv-x="258" 
d="M57 0l148 714h144l-148 -714h-144zM246 900h144l48 -144h-106l-28 85l-66 -85h-100z" />
    <glyph glyph-name="Idieresis" unicode="&#xcf;" horiz-adv-x="258" 
d="M57 0l148 714h144l-148 -714h-144zM339 887h112l-25 -118h-112zM167 887h112l-25 -118h-112z" />
    <glyph glyph-name="Igrave" unicode="&#xcc;" horiz-adv-x="258" 
d="M57 0l148 714h144l-148 -714h-144zM258 756l-68 144h138l24 -144h-94z" />
    <glyph glyph-name="Ntilde" unicode="&#xd1;" horiz-adv-x="574" 
d="M364 714l72 -489h2l102 489h132l-148 -714h-164l-73 500h-2l-103 -500h-132l148 714h166zM283 765q21 60 51 92t68 32q28 0 42 -7l43 -21q13 -6 29 -6q14 0 24 13t12 23h72q-9 -27 -21.5 -49.5t-27.5 -39t-33 -26t-37 -9.5q-16 0 -31 5.5t-29 11.5l-27 11.5t-25 5.5
q-24 0 -40 -36h-70z" />
    <glyph glyph-name="Oacute" unicode="&#xd3;" horiz-adv-x="556" 
d="M253 357q-15 -72 -22 -122.5t-3 -82t20.5 -46t48.5 -14.5t54.5 14.5t39.5 46t31 82t29 122.5t22 122t3 82t-20.5 46.5t-48.5 14.5t-54.5 -14.5t-39.5 -46.5t-31 -82t-29 -122zM109 357q17 81 39 149.5t57 117.5t89 76.5t135 27.5t123.5 -27.5t57.5 -76.5t8.5 -117.5
t-23.5 -149.5t-39 -149.5t-57 -117.5t-89 -76.5t-135 -27.5t-123.5 27.5t-57.5 76.5t-8.5 117.5t23.5 149.5zM456 900h138l-128 -144h-94z" />
    <glyph glyph-name="Ocircumflex" unicode="&#xd4;" horiz-adv-x="556" 
d="M253 357q-15 -72 -22 -122.5t-3 -82t20.5 -46t48.5 -14.5t54.5 14.5t39.5 46t31 82t29 122.5t22 122t3 82t-20.5 46.5t-48.5 14.5t-54.5 -14.5t-39.5 -46.5t-31 -82t-29 -122zM109 357q17 81 39 149.5t57 117.5t89 76.5t135 27.5t123.5 -27.5t57.5 -76.5t8.5 -117.5
t-23.5 -149.5t-39 -149.5t-57 -117.5t-89 -76.5t-135 -27.5t-123.5 27.5t-57.5 76.5t-8.5 117.5t23.5 149.5zM397 900h144l48 -144h-106l-28 85l-66 -85h-100z" />
    <glyph glyph-name="Odieresis" unicode="&#xd6;" horiz-adv-x="556" 
d="M253 357q-15 -72 -22 -122.5t-3 -82t20.5 -46t48.5 -14.5t54.5 14.5t39.5 46t31 82t29 122.5t22 122t3 82t-20.5 46.5t-48.5 14.5t-54.5 -14.5t-39.5 -46.5t-31 -82t-29 -122zM109 357q17 81 39 149.5t57 117.5t89 76.5t135 27.5t123.5 -27.5t57.5 -76.5t8.5 -117.5
t-23.5 -149.5t-39 -149.5t-57 -117.5t-89 -76.5t-135 -27.5t-123.5 27.5t-57.5 76.5t-8.5 117.5t23.5 149.5zM484 887h112l-25 -118h-112zM312 887h112l-25 -118h-112z" />
    <glyph glyph-name="Ograve" unicode="&#xd2;" horiz-adv-x="556" 
d="M253 357q-15 -72 -22 -122.5t-3 -82t20.5 -46t48.5 -14.5t54.5 14.5t39.5 46t31 82t29 122.5t22 122t3 82t-20.5 46.5t-48.5 14.5t-54.5 -14.5t-39.5 -46.5t-31 -82t-29 -122zM109 357q17 81 39 149.5t57 117.5t89 76.5t135 27.5t123.5 -27.5t57.5 -76.5t8.5 -117.5
t-23.5 -149.5t-39 -149.5t-57 -117.5t-89 -76.5t-135 -27.5t-123.5 27.5t-57.5 76.5t-8.5 117.5t23.5 149.5zM391 756l-68 144h138l24 -144h-94z" />
    <glyph glyph-name="Otilde" unicode="&#xd5;" horiz-adv-x="556" 
d="M253 357q-15 -72 -22 -122.5t-3 -82t20.5 -46t48.5 -14.5t54.5 14.5t39.5 46t31 82t29 122.5t22 122t3 82t-20.5 46.5t-48.5 14.5t-54.5 -14.5t-39.5 -46.5t-31 -82t-29 -122zM109 357q17 81 39 149.5t57 117.5t89 76.5t135 27.5t123.5 -27.5t57.5 -76.5t8.5 -117.5
t-23.5 -149.5t-39 -149.5t-57 -117.5t-89 -76.5t-135 -27.5t-123.5 27.5t-57.5 76.5t-8.5 117.5t23.5 149.5zM266 765q21 60 51 92t68 32q28 0 42 -7l43 -21q13 -6 29 -6q14 0 24 13t12 23h72q-9 -27 -21.5 -49.5t-27.5 -39t-33 -26t-37 -9.5q-16 0 -31 5.5t-29 11.5
l-27 11.5t-25 5.5q-24 0 -40 -36h-70z" />
    <glyph glyph-name="Scaron" unicode="&#x160;" horiz-adv-x="519" 
d="M212 223l-5 -21q-2 -13 -3.5 -24t-1.5 -22q0 -29 17.5 -46.5t60.5 -17.5q33 0 63.5 21.5t40.5 66.5q5 24 2 41.5t-15.5 31.5t-34.5 25.5t-55 23.5q-45 16 -76 35t-49 44.5t-22 59t5 77.5q22 106 92 158t173 52q48 0 86.5 -10.5t62.5 -34t33 -60t-1 -87.5l-4 -20h-138
q11 51 -1.5 78.5t-54.5 27.5q-24 0 -41.5 -7t-29.5 -18.5t-18.5 -26.5t-9.5 -31q-8 -33 2 -55.5t51 -41.5l101 -48q37 -18 59.5 -37.5t33 -42t11 -49.5t-6.5 -60q-23 -113 -99.5 -166t-193.5 -53q-122 0 -163.5 54.5t-20.5 153.5l6 29h144zM291 900h106l29 -85l65 85h100
l-108 -144h-144z" />
    <glyph glyph-name="Uacute" unicode="&#xda;" horiz-adv-x="538" 
d="M333 714l-104 -498q-5 -27 -6 -49.5t5 -39t20 -26t40 -9.5q25 0 43.5 9.5t31.5 26t21 39t13 49.5l104 498h144l-104 -498q-14 -68 -42 -112.5t-65.5 -70.5t-80.5 -36.5t-87 -10.5t-83 9t-66 34.5t-37 70t5 116.5l104 498h144zM459 900h138l-128 -144h-94z" />
    <glyph glyph-name="Ucircumflex" unicode="&#xdb;" horiz-adv-x="538" 
d="M333 714l-104 -498q-5 -27 -6 -49.5t5 -39t20 -26t40 -9.5q25 0 43.5 9.5t31.5 26t21 39t13 49.5l104 498h144l-104 -498q-14 -68 -42 -112.5t-65.5 -70.5t-80.5 -36.5t-87 -10.5t-83 9t-66 34.5t-37 70t5 116.5l104 498h144zM381 900h144l48 -144h-106l-28 85l-66 -85
h-100z" />
    <glyph glyph-name="Udieresis" unicode="&#xdc;" horiz-adv-x="538" 
d="M333 714l-104 -498q-5 -27 -6 -49.5t5 -39t20 -26t40 -9.5q25 0 43.5 9.5t31.5 26t21 39t13 49.5l104 498h144l-104 -498q-14 -68 -42 -112.5t-65.5 -70.5t-80.5 -36.5t-87 -10.5t-83 9t-66 34.5t-37 70t5 116.5l104 498h144zM479 887h112l-25 -118h-112zM307 887h112
l-25 -118h-112z" />
    <glyph glyph-name="Ugrave" unicode="&#xd9;" horiz-adv-x="538" 
d="M333 714l-104 -498q-5 -27 -6 -49.5t5 -39t20 -26t40 -9.5q25 0 43.5 9.5t31.5 26t21 39t13 49.5l104 498h144l-104 -498q-14 -68 -42 -112.5t-65.5 -70.5t-80.5 -36.5t-87 -10.5t-83 9t-66 34.5t-37 70t5 116.5l104 498h144zM375 756l-68 144h138l24 -144h-94z" />
    <glyph glyph-name="Yacute" unicode="&#xdd;" horiz-adv-x="520" 
d="M313 714l37 -276h2l157 276h156l-275 -433l-58 -281h-144l58 281l-95 433h162zM452 900h138l-128 -144h-94z" />
    <glyph glyph-name="Ydieresis" unicode="&#x178;" horiz-adv-x="520" 
d="M313 714l37 -276h2l157 276h156l-275 -433l-58 -281h-144l58 281l-95 433h162zM468 887h112l-25 -118h-112zM296 887h112l-25 -118h-112z" />
    <glyph glyph-name="Zcaron" unicode="&#x17d;" horiz-adv-x="481" 
d="M45 105l365 491h-245l25 118h411l-23 -109l-368 -487h271l-24 -118h-433zM277 900h106l29 -85l65 85h100l-108 -144h-144z" />
    <glyph glyph-name="aacute" unicode="&#xe1;" horiz-adv-x="481" 
d="M352 269q-16 -11 -33 -17.5t-31 -9.5q-45 -9 -66.5 -30t-29.5 -57q-7 -31 0.5 -53t35.5 -22q29 0 60 19t42 64zM122 373l3 13q10 46 31.5 78t51 51.5t65.5 28t75 8.5q62 0 97.5 -12t52 -34t17.5 -52.5t-6 -66.5l-59 -283q-4 -19 -6 -33t-2.5 -26t0.5 -22.5t4 -22.5h-132
q-5 13 -5.5 27.5t-0.5 28.5h-2q-32 -42 -67 -56t-84 -14q-36 0 -58 14t-33 36t-12 49.5t5 54.5q8 38 21.5 65.5t34 47t49 32.5t66.5 23l82 21q32 8 47.5 22t20.5 41q7 31 -4 48.5t-46 17.5q-32 0 -52 -19t-27 -51l-3 -15h-124zM403 746h138l-128 -144h-94z" />
    <glyph glyph-name="acircumflex" unicode="&#xe2;" horiz-adv-x="481" 
d="M352 269q-16 -11 -33 -17.5t-31 -9.5q-45 -9 -66.5 -30t-29.5 -57q-7 -31 0.5 -53t35.5 -22q29 0 60 19t42 64zM122 373l3 13q10 46 31.5 78t51 51.5t65.5 28t75 8.5q62 0 97.5 -12t52 -34t17.5 -52.5t-6 -66.5l-59 -283q-4 -19 -6 -33t-2.5 -26t0.5 -22.5t4 -22.5h-132
q-5 13 -5.5 27.5t-0.5 28.5h-2q-32 -42 -67 -56t-84 -14q-36 0 -58 14t-33 36t-12 49.5t5 54.5q8 38 21.5 65.5t34 47t49 32.5t66.5 23l82 21q32 8 47.5 22t20.5 41q7 31 -4 48.5t-46 17.5q-32 0 -52 -19t-27 -51l-3 -15h-124zM329 746h144l48 -144h-106l-28 85l-66 -85
h-100z" />
    <glyph glyph-name="adieresis" unicode="&#xe4;" horiz-adv-x="481" 
d="M352 269q-16 -11 -33 -17.5t-31 -9.5q-45 -9 -66.5 -30t-29.5 -57q-7 -31 0.5 -53t35.5 -22q29 0 60 19t42 64zM122 373l3 13q10 46 31.5 78t51 51.5t65.5 28t75 8.5q62 0 97.5 -12t52 -34t17.5 -52.5t-6 -66.5l-59 -283q-4 -19 -6 -33t-2.5 -26t0.5 -22.5t4 -22.5h-132
q-5 13 -5.5 27.5t-0.5 28.5h-2q-32 -42 -67 -56t-84 -14q-36 0 -58 14t-33 36t-12 49.5t5 54.5q8 38 21.5 65.5t34 47t49 32.5t66.5 23l82 21q32 8 47.5 22t20.5 41q7 31 -4 48.5t-46 17.5q-32 0 -52 -19t-27 -51l-3 -15h-124zM416 733h112l-25 -118h-112zM244 733h112
l-25 -118h-112z" />
    <glyph glyph-name="agrave" unicode="&#xe0;" horiz-adv-x="481" 
d="M352 269q-16 -11 -33 -17.5t-31 -9.5q-45 -9 -66.5 -30t-29.5 -57q-7 -31 0.5 -53t35.5 -22q29 0 60 19t42 64zM122 373l3 13q10 46 31.5 78t51 51.5t65.5 28t75 8.5q62 0 97.5 -12t52 -34t17.5 -52.5t-6 -66.5l-59 -283q-4 -19 -6 -33t-2.5 -26t0.5 -22.5t4 -22.5h-132
q-5 13 -5.5 27.5t-0.5 28.5h-2q-32 -42 -67 -56t-84 -14q-36 0 -58 14t-33 36t-12 49.5t5 54.5q8 38 21.5 65.5t34 47t49 32.5t66.5 23l82 21q32 8 47.5 22t20.5 41q7 31 -4 48.5t-46 17.5q-32 0 -52 -19t-27 -51l-3 -15h-124zM329 602l-68 144h138l24 -144h-94z" />
    <glyph glyph-name="aring" unicode="&#xe5;" horiz-adv-x="481" 
d="M352 269q-16 -11 -33 -17.5t-31 -9.5q-45 -9 -66.5 -30t-29.5 -57q-7 -31 0.5 -53t35.5 -22q29 0 60 19t42 64zM122 373l3 13q10 46 31.5 78t51 51.5t65.5 28t75 8.5q62 0 97.5 -12t52 -34t17.5 -52.5t-6 -66.5l-59 -283q-4 -19 -6 -33t-2.5 -26t0.5 -22.5t4 -22.5h-132
q-5 13 -5.5 27.5t-0.5 28.5h-2q-32 -42 -67 -56t-84 -14q-36 0 -58 14t-33 36t-12 49.5t5 54.5q8 38 21.5 65.5t34 47t49 32.5t66.5 23l82 21q32 8 47.5 22t20.5 41q7 31 -4 48.5t-46 17.5q-32 0 -52 -19t-27 -51l-3 -15h-124zM322 690q-10 -58 46 -58q24 0 44.5 17t25.5 41
q10 58 -46 58q-24 0 -44.5 -17t-25.5 -41zM266 690q11 50 50.5 80t87.5 30q46 0 73 -29.5t17 -80.5q-5 -24 -18.5 -45t-32.5 -35.5t-41.5 -22t-45.5 -5.5q-23 -2 -42 5.5t-31.5 22t-17.5 35t1 45.5z" />
    <glyph glyph-name="atilde" unicode="&#xe3;" horiz-adv-x="481" 
d="M352 269q-16 -11 -33 -17.5t-31 -9.5q-45 -9 -66.5 -30t-29.5 -57q-7 -31 0.5 -53t35.5 -22q29 0 60 19t42 64zM122 373l3 13q10 46 31.5 78t51 51.5t65.5 28t75 8.5q62 0 97.5 -12t52 -34t17.5 -52.5t-6 -66.5l-59 -283q-4 -19 -6 -33t-2.5 -26t0.5 -22.5t4 -22.5h-132
q-5 13 -5.5 27.5t-0.5 28.5h-2q-32 -42 -67 -56t-84 -14q-36 0 -58 14t-33 36t-12 49.5t5 54.5q8 38 21.5 65.5t34 47t49 32.5t66.5 23l82 21q32 8 47.5 22t20.5 41q7 31 -4 48.5t-46 17.5q-32 0 -52 -19t-27 -51l-3 -15h-124zM203 611q21 60 51 92t68 32q28 0 42 -7l43 -21
q13 -6 29 -6q14 0 24 13t12 23h72q-9 -27 -21.5 -49.5t-27.5 -39t-33 -26t-37 -9.5q-16 0 -31 5.5t-29 11.5l-27 11.5t-25 5.5q-24 0 -40 -36h-70z" />
    <glyph glyph-name="ccedilla" unicode="&#xe7;" horiz-adv-x="463" 
d="M376 344q4 19 5.5 38.5t-2 35t-14 25t-29.5 9.5q-26 0 -43.5 -11.5t-30.5 -34t-23 -57.5t-20 -81q-10 -50 -14.5 -85.5t-1.5 -58.5t15.5 -33.5t35.5 -10.5q35 0 57 30t36 96h132q-22 -106 -81 -163q-50 -48 -136 -56l-39 -45q10 3 17.5 4t19.5 1q16 0 29 -4.5t22 -13.5
t12.5 -22.5t-0.5 -31.5q-10 -42 -47.5 -67t-98.5 -25q-28 0 -50 4.5t-45 14.5l28 46q17 -9 32 -12t33 -3q21 0 37.5 10t20.5 22q4 15 -6.5 24.5t-30.5 9.5q-11 0 -18.5 -1.5t-16.5 -4.5l-18 20l64 74q-19 1 -35.5 4.5t-30.5 8.5q-26 10 -43.5 31t-25.5 53.5t-6 78t15 106.5
q17 83 44.5 137.5t63.5 87t78.5 45.5t90.5 13q95 0 132 -56.5t18 -151.5h-132z" />
    <glyph glyph-name="eacute" unicode="&#xe9;" horiz-adv-x="463" 
d="M373 330q5 31 7 54.5t-2 40t-15.5 25t-32.5 8.5t-36.5 -9.5t-27 -25t-19 -34.5t-11.5 -38l-4 -21h141zM215 248l-9 -43q-5 -24 -6 -46.5t3 -40t15 -28t30 -10.5q35 0 56 25t38 76h124q-23 -94 -79.5 -144.5t-155.5 -50.5q-75 0 -111.5 26t-48 67.5t-5.5 93t16 101.5
q11 54 28.5 104t48.5 89t78 62t117 23q60 0 94.5 -19.5t49 -55t12.5 -86t-15 -112.5l-7 -31h-273zM393 746h138l-128 -144h-94z" />
    <glyph glyph-name="ecircumflex" unicode="&#xea;" horiz-adv-x="463" 
d="M373 330q5 31 7 54.5t-2 40t-15.5 25t-32.5 8.5t-36.5 -9.5t-27 -25t-19 -34.5t-11.5 -38l-4 -21h141zM215 248l-9 -43q-5 -24 -6 -46.5t3 -40t15 -28t30 -10.5q35 0 56 25t38 76h124q-23 -94 -79.5 -144.5t-155.5 -50.5q-75 0 -111.5 26t-48 67.5t-5.5 93t16 101.5
q11 54 28.5 104t48.5 89t78 62t117 23q60 0 94.5 -19.5t49 -55t12.5 -86t-15 -112.5l-7 -31h-273zM324 746h144l48 -144h-106l-28 85l-66 -85h-100z" />
    <glyph glyph-name="edieresis" unicode="&#xeb;" horiz-adv-x="463" 
d="M373 330q5 31 7 54.5t-2 40t-15.5 25t-32.5 8.5t-36.5 -9.5t-27 -25t-19 -34.5t-11.5 -38l-4 -21h141zM215 248l-9 -43q-5 -24 -6 -46.5t3 -40t15 -28t30 -10.5q35 0 56 25t38 76h124q-23 -94 -79.5 -144.5t-155.5 -50.5q-75 0 -111.5 26t-48 67.5t-5.5 93t16 101.5
q11 54 28.5 104t48.5 89t78 62t117 23q60 0 94.5 -19.5t49 -55t12.5 -86t-15 -112.5l-7 -31h-273zM411 733h112l-25 -118h-112zM239 733h112l-25 -118h-112z" />
    <glyph glyph-name="egrave" unicode="&#xe8;" horiz-adv-x="463" 
d="M373 330q5 31 7 54.5t-2 40t-15.5 25t-32.5 8.5t-36.5 -9.5t-27 -25t-19 -34.5t-11.5 -38l-4 -21h141zM215 248l-9 -43q-5 -24 -6 -46.5t3 -40t15 -28t30 -10.5q35 0 56 25t38 76h124q-23 -94 -79.5 -144.5t-155.5 -50.5q-75 0 -111.5 26t-48 67.5t-5.5 93t16 101.5
q11 54 28.5 104t48.5 89t78 62t117 23q60 0 94.5 -19.5t49 -55t12.5 -86t-15 -112.5l-7 -31h-273zM326 602l-68 144h138l24 -144h-94z" />
    <glyph glyph-name="iacute" unicode="&#xed;" horiz-adv-x="240" 
d="M162 538h138l-111 -538h-138zM256 746h138l-128 -144h-94z" />
    <glyph glyph-name="icircumflex" unicode="&#xee;" horiz-adv-x="240" 
d="M162 538h138l-111 -538h-138zM209 746h144l48 -144h-106l-28 85l-66 -85h-100z" />
    <glyph glyph-name="idieresis" unicode="&#xef;" horiz-adv-x="240" 
d="M162 538h138l-111 -538h-138zM297 733h112l-25 -118h-112zM125 733h112l-25 -118h-112z" />
    <glyph glyph-name="igrave" unicode="&#xec;" horiz-adv-x="240" 
d="M162 538h138l-111 -538h-138zM207 602l-68 144h138l24 -144h-94z" />
    <glyph glyph-name="ntilde" unicode="&#xf1;" horiz-adv-x="500" 
d="M157 538h132l-13 -63h2q30 40 69 58.5t84 18.5q66 0 94 -36t11 -117l-82 -399h-138l77 371q8 42 -2.5 58.5t-41.5 16.5q-73 0 -91 -89l-74 -357h-138zM204 611q21 60 51 92t68 32q28 0 42 -7l43 -21q13 -6 29 -6q14 0 24 13t12 23h72q-9 -27 -21.5 -49.5t-27.5 -39
t-33 -26t-37 -9.5q-16 0 -31 5.5t-29 11.5l-27 11.5t-25 5.5q-24 0 -40 -36h-70z" />
    <glyph glyph-name="oacute" unicode="&#xf3;" 
d="M221 269q-8 -41 -13.5 -76t-3 -60t14 -39t37.5 -14q42 0 67.5 44t45.5 145q21 101 14.5 145t-48.5 44q-26 0 -43.5 -14t-30.5 -39t-22 -60t-18 -76zM83 269q15 69 37 122t54 88.5t76.5 54t103.5 18.5q62 1 99.5 -16.5t54.5 -53.5t15.5 -89.5t-16.5 -123.5
q-14 -69 -35.5 -122t-54 -88.5t-77 -54t-103.5 -18.5q-63 -1 -100.5 16.5t-54 53.5t-15 89t15.5 124zM395 746h138l-128 -144h-94z" />
    <glyph glyph-name="ocircumflex" unicode="&#xf4;" 
d="M221 269q-8 -41 -13.5 -76t-3 -60t14 -39t37.5 -14q42 0 67.5 44t45.5 145q21 101 14.5 145t-48.5 44q-26 0 -43.5 -14t-30.5 -39t-22 -60t-18 -76zM83 269q15 69 37 122t54 88.5t76.5 54t103.5 18.5q62 1 99.5 -16.5t54.5 -53.5t15.5 -89.5t-16.5 -123.5
q-14 -69 -35.5 -122t-54 -88.5t-77 -54t-103.5 -18.5q-63 -1 -100.5 16.5t-54 53.5t-15 89t15.5 124zM324 746h144l48 -144h-106l-28 85l-66 -85h-100z" />
    <glyph glyph-name="odieresis" unicode="&#xf6;" 
d="M221 269q-8 -41 -13.5 -76t-3 -60t14 -39t37.5 -14q42 0 67.5 44t45.5 145q21 101 14.5 145t-48.5 44q-26 0 -43.5 -14t-30.5 -39t-22 -60t-18 -76zM83 269q15 69 37 122t54 88.5t76.5 54t103.5 18.5q62 1 99.5 -16.5t54.5 -53.5t15.5 -89.5t-16.5 -123.5
q-14 -69 -35.5 -122t-54 -88.5t-77 -54t-103.5 -18.5q-63 -1 -100.5 16.5t-54 53.5t-15 89t15.5 124zM409 733h112l-25 -118h-112zM237 733h112l-25 -118h-112z" />
    <glyph glyph-name="ograve" unicode="&#xf2;" 
d="M221 269q-8 -41 -13.5 -76t-3 -60t14 -39t37.5 -14q42 0 67.5 44t45.5 145q21 101 14.5 145t-48.5 44q-26 0 -43.5 -14t-30.5 -39t-22 -60t-18 -76zM83 269q15 69 37 122t54 88.5t76.5 54t103.5 18.5q62 1 99.5 -16.5t54.5 -53.5t15.5 -89.5t-16.5 -123.5
q-14 -69 -35.5 -122t-54 -88.5t-77 -54t-103.5 -18.5q-63 -1 -100.5 16.5t-54 53.5t-15 89t15.5 124zM328 602l-68 144h138l24 -144h-94z" />
    <glyph glyph-name="otilde" unicode="&#xf5;" 
d="M221 269q-8 -41 -13.5 -76t-3 -60t14 -39t37.5 -14q42 0 67.5 44t45.5 145q21 101 14.5 145t-48.5 44q-26 0 -43.5 -14t-30.5 -39t-22 -60t-18 -76zM83 269q15 69 37 122t54 88.5t76.5 54t103.5 18.5q62 1 99.5 -16.5t54.5 -53.5t15.5 -89.5t-16.5 -123.5
q-14 -69 -35.5 -122t-54 -88.5t-77 -54t-103.5 -18.5q-63 -1 -100.5 16.5t-54 53.5t-15 89t15.5 124zM196 611q21 60 51 92t68 32q28 0 42 -7l43 -21q13 -6 29 -6q14 0 24 13t12 23h72q-9 -27 -21.5 -49.5t-27.5 -39t-33 -26t-37 -9.5q-16 0 -31 5.5t-29 11.5l-27 11.5
t-25 5.5q-24 0 -40 -36h-70z" />
    <glyph glyph-name="scaron" unicode="&#x161;" horiz-adv-x="444" 
d="M183 176l-4 -18q-7 -35 7 -56.5t49 -21.5q32 0 54 16t29 48q6 26 -6 39.5t-31 21.5l-90 35q-54 20 -74.5 56.5t-8.5 93.5q7 33 24 62.5t45.5 51.5t68.5 35t93 13q94 0 131 -40t21 -113l-4 -22h-124q8 42 -1 61.5t-43 19.5q-26 0 -48.5 -14.5t-28.5 -43.5q-5 -20 5 -36
t42 -27l77 -28q61 -22 80.5 -57.5t6.5 -96.5q-9 -42 -30.5 -74t-52.5 -53t-70 -31.5t-82 -10.5q-59 0 -94.5 12t-53.5 34.5t-20.5 54t5.5 70.5l4 19h124zM222 746h106l29 -85l65 85h100l-108 -144h-144z" />
    <glyph glyph-name="uacute" unicode="&#xfa;" horiz-adv-x="500" 
d="M335 63h-2q-30 -40 -69 -58.5t-84 -18.5q-66 0 -94.5 36t-11.5 117l83 399h138l-77 -371q-8 -42 2.5 -58.5t41.5 -16.5q73 0 91 89l74 357h138l-111 -538h-132zM405 746h138l-128 -144h-94z" />
    <glyph glyph-name="ucircumflex" unicode="&#xfb;" horiz-adv-x="500" 
d="M335 63h-2q-30 -40 -69 -58.5t-84 -18.5q-66 0 -94.5 36t-11.5 117l83 399h138l-77 -371q-8 -42 2.5 -58.5t41.5 -16.5q73 0 91 89l74 357h138l-111 -538h-132zM334 746h144l48 -144h-106l-28 85l-66 -85h-100z" />
    <glyph glyph-name="udieresis" unicode="&#xfc;" horiz-adv-x="500" 
d="M335 63h-2q-30 -40 -69 -58.5t-84 -18.5q-66 0 -94.5 36t-11.5 117l83 399h138l-77 -371q-8 -42 2.5 -58.5t41.5 -16.5q73 0 91 89l74 357h138l-111 -538h-132zM428 733h112l-25 -118h-112zM256 733h112l-25 -118h-112z" />
    <glyph glyph-name="ugrave" unicode="&#xf9;" horiz-adv-x="500" 
d="M335 63h-2q-30 -40 -69 -58.5t-84 -18.5q-66 0 -94.5 36t-11.5 117l83 399h138l-77 -371q-8 -42 2.5 -58.5t41.5 -16.5q73 0 91 89l74 357h138l-111 -538h-132zM336 602l-68 144h138l24 -144h-94z" />
    <glyph glyph-name="yacute" unicode="&#xfd;" horiz-adv-x="444" 
d="M30 -73q18 -3 36 -3q38 0 58.5 20t31.5 56l-40 538h144l3 -372h2l147 372h138l-234 -502q-33 -70 -58 -111.5t-52 -64t-60 -29.5t-81 -7h-56zM390 746h138l-128 -144h-94z" />
    <glyph glyph-name="ydieresis" unicode="&#xff;" horiz-adv-x="444" 
d="M30 -73q18 -3 36 -3q38 0 58.5 20t31.5 56l-40 538h144l3 -372h2l147 372h138l-234 -502q-33 -70 -58 -111.5t-52 -64t-60 -29.5t-81 -7h-56zM402 733h112l-25 -118h-112zM230 733h112l-25 -118h-112z" />
    <glyph glyph-name="zcaron" unicode="&#x17e;" horiz-adv-x="426" 
d="M46 106l281 320h-205l23 112h368l-22 -106l-281 -320h215l-23 -112h-378zM211 746h106l29 -85l65 85h100l-108 -144h-144z" />
    <glyph glyph-name="Euro" unicode="&#x20ac;" 
d="M549 561q-38 51 -88 51q-58 0 -88 -49q-9 -14 -18.5 -38.5t-19.5 -59.5h168l-45 -78h-142l-11 -51h132l-45 -78h-101q-6 -38 -8.5 -65t-0.5 -43q6 -61 63 -61q52 0 143 67l-26 -125q-86 -45 -160 -45q-202 0 -154 272h-69l45 78h38l12 51h-68l46 78h41q72 246 279 246
q88 0 144 -50z" />
    <glyph glyph-name="notequal" unicode="&#x2260;" horiz-adv-x="593" 
d="M247 94l-79 -155l-98 50l53 105h-116v113h173l56 112h-229v113h286l78 153l99 -49l-53 -104h115v-113h-172l-56 -112h228v-113h-285z" />
    <glyph glyph-name="infinity" unicode="&#x221e;" horiz-adv-x="823" 
d="M742 265q0 -39 -12 -73t-34 -59.5t-54.5 -40t-72.5 -14.5q-31 0 -58 9.5t-50.5 25t-44.5 36t-40 42.5l-41.5 -42.5t-43 -36t-48.5 -24.5t-59 -9q-41 0 -73 14t-55 39t-35 58.5t-12 72.5t11.5 72t33.5 58t54 39t72 14q33 0 60.5 -9.5t51 -26t44 -38t40.5 -45.5
q19 23 39.5 45t44 38.5t51 26.5t59.5 10q40 0 72 -14t54 -38.5t34 -57.5t12 -72zM647 262q0 35 -21 60t-58 25q-20 0 -38.5 -8.5t-35 -21.5t-31.5 -28.5l-27 -28.5q13 -15 28 -29.5t32 -26t35.5 -18.5t39.5 -7q37 0 56.5 24t19.5 59zM315 260l-27.5 28.5t-33 28t-36.5 21
t-38 8.5q-35 0 -55.5 -26t-20.5 -59q0 -36 21 -58.5t58 -22.5q19 0 38 7.5t35.5 19t31.5 25.5t27 28z" />
    <glyph glyph-name="lessequal" unicode="&#x2264;" horiz-adv-x="593" 
d="M7 276v113l525 174v-118l-370 -112l370 -109v-118zM7 -38v113h525v-113h-525z" />
    <glyph glyph-name="greaterequal" unicode="&#x2265;" horiz-adv-x="593" 
d="M7 106v118l370 109l-370 112v118l525 -174v-113zM7 -38v113h525v-113h-525z" />
    <glyph glyph-name="partialdiff" unicode="&#x2202;" horiz-adv-x="560" 
d="M494 358q0 -64 -10.5 -130t-39 -119.5t-78 -87.5t-128.5 -34q-50 0 -91 17t-70 48t-44.5 72.5t-15.5 91.5q0 48 16 88.5t44.5 70t68.5 46t88 16.5q41 0 75 -13.5t66 -39.5v27q1 35 -6 73.5t-24.5 71t-46 53.5t-71.5 21q-36 0 -65 -13.5t-56 -35.5l-63 72q42 32 82.5 50
t95.5 18q78 0 130 -32t84 -83.5t45.5 -116.5t13.5 -131zM373 289q-24 29 -54 45t-68 16q-31 0 -53.5 -11.5t-37.5 -30.5t-22.5 -44.5t-7.5 -53.5q0 -26 6.5 -50.5t20 -43.5t35 -30.5t50.5 -11.5q35 0 60.5 18.5t41.5 47t23.5 62t6.5 62.5z" />
    <glyph glyph-name="summation" unicode="&#x2211;" horiz-adv-x="654" 
d="M25 -214v95l301 411l-288 400v94h579v-109h-421l272 -384l-290 -398h451v-109h-604z" />
    <glyph glyph-name="product" unicode="&#x220f;" horiz-adv-x="743" 
d="M564 -214v891h-385v-891h-119v1000h623v-1000h-119z" />
    <glyph glyph-name="pi" unicode="&#x3c0;" horiz-adv-x="597" 
d="M576 379h-79l-49 -228l-4 -19.5t-2 -19.5q0 -14 9.5 -19.5t22.5 -5.5q11 0 22.5 3.5t22.5 7.5l-18 -84q-22 -9 -45 -15.5t-47 -6.5q-35 0 -61 16t-26 56q0 15 2.5 30.5t5.5 30.5l54 254h-196l-80 -379h-113l81 379h-71l23 106h570z" />
    <glyph glyph-name="integral" unicode="&#x222b;" horiz-adv-x="614" 
d="M493 708q0 -23 -15.5 -39t-38.5 -16q-24 0 -35 12t-16 26l-9.5 26t-14.5 12q-11 0 -14.5 -9.5t-3.5 -18.5q0 -36 2 -72.5t2 -72.5l1 -470v-95t-12.5 -97.5t-44 -76.5t-93.5 -31q-17 0 -37 4.5t-37 14t-28 24.5t-11 36q0 23 15.5 38t38.5 15q24 0 34.5 -12t16 -26t9 -26
t14.5 -12q13 0 15.5 12t2.5 21q0 28 -2 55.5t-2 56.5l-1 529v55.5t3.5 60.5t12.5 58t27 48q43 47 110 47q17 0 36.5 -4.5t36 -13.5t27.5 -23.5t11 -35.5z" />
    <glyph glyph-name="Omega" unicode="&#x2126;" horiz-adv-x="759" 
d="M704 449q0 -54 -17.5 -105.5t-49 -94t-76.5 -72t-100 -38.5l-9 -41h186l-21 -98h-277l42 197q43 7 79 29.5t62.5 55.5t41 74t14.5 84q0 79 -45.5 126t-124.5 47q-53 0 -98 -22.5t-77 -59.5t-50 -84.5t-18 -98.5q0 -28 7 -53.5t21 -45.5t35.5 -34t51.5 -18l-42 -197h-269
l21 98h176l11 47q-34 10 -59.5 30.5t-43 47.5t-26 59.5t-8.5 66.5q0 77 30 145t81.5 118.5t119.5 79.5t145 29q61 0 113.5 -19t91 -54.5t60.5 -85.5t22 -113z" />
    <glyph glyph-name="radical" unicode="&#x221a;" horiz-adv-x="545" 
d="M320 -214h-110l-151 313l-51 -24l-44 93l155 71l126 -269l166 816h122z" />
    <glyph glyph-name="approxequal" unicode="&#x2248;" horiz-adv-x="593" 
d="M541 457q-3 -35 -13 -67t-29 -56t-47 -38.5t-68 -14.5q-28 0 -61.5 10.5t-67 22.5l-64.5 22.5t-54 10.5q-28 0 -43 -20.5t-19 -45.5h-75q3 33 12.5 64.5t27.5 56t45.5 39.5t65.5 15q30 0 62.5 -10t65.5 -21.5t65 -21.5t60 -10q29 0 43 19t19 45h75zM539 244
q-3 -34 -13 -66t-28 -56.5t-45 -39t-66 -14.5q-29 0 -64 10.5t-69.5 23l-66 23t-52.5 10.5q-27 0 -42.5 -21.5t-19.5 -45.5h-74q3 33 12.5 65t27.5 56.5t45 40t65 15.5q31 0 63 -10t64 -22t64 -22t63 -10q28 0 42 18.5t19 44.5h75z" />
    <glyph glyph-name="Delta" unicode="&#x2206;" horiz-adv-x="689" 
d="M-78 0l419 712h122l131 -712h-672zM381 576l-269 -469h351z" />
    <glyph glyph-name="lozenge" unicode="&#x25ca;" horiz-adv-x="593" 
d="M348 -35h-105l-178 391l179 391h104l180 -391zM296 635l-116 -279l116 -280l117 280z" />
    <glyph glyph-name="commaaccent" unicode="&#xf004;" horiz-adv-x="240" 
d="M152 -50l-20 -97q-7 -33 -20 -53.5t-29 -32t-34 -15.5t-36 -5l7 36q18 5 29.5 15.5t17.5 33.5h-51l24 118h112z" />
    <glyph glyph-name="commaaccent" unicode="&#xf6c3;" horiz-adv-x="240" 
d="M152 -50l-20 -97q-7 -33 -20 -53.5t-29 -32t-34 -15.5t-36 -5l7 36q18 5 29.5 15.5t17.5 33.5h-51l24 118h112z" />
    <glyph glyph-name="commaaccent.alt" horiz-adv-x="240" 
d="M186 596l21 97q6 33 19 53.5t29.5 32t34.5 15.5t36 5l-8 -36q-18 -5 -29 -15.5t-17 -33.5h51l-25 -118h-112z" />
    <glyph glyph-name="caron.alt" horiz-adv-x="222" 
d="M254 714h122l-94 -144h-88z" />
    <glyph glyph-name="Amacron" unicode="&#x100;" horiz-adv-x="556" 
d="M263 269h140l-2 321h-2zM337 714h178l41 -714h-150l-2 151h-190l-64 -151h-150zM593 866l-16 -76h-294l16 76h294z" />
    <glyph glyph-name="Abreve" unicode="&#x102;" horiz-adv-x="556" 
d="M263 269h140l-2 321h-2zM337 714h178l41 -714h-150l-2 151h-190l-64 -151h-150zM376 899q-3 -29 14.5 -47t46.5 -18t53.5 18t33.5 47h65q-5 -20 -16.5 -44.5t-31.5 -46t-49.5 -36t-70.5 -14.5t-64.5 14.5t-35 36t-13 46t2.5 44.5h65z" />
    <glyph glyph-name="Aogonek" unicode="&#x104;" horiz-adv-x="556" 
d="M481 -175q-36 -25 -63 -33.5t-61 -8.5q-28 0 -45.5 7.5t-26.5 19t-11 26.5t1 30q9 36 41.5 66.5t89.5 67.5l-2 151h-190l-64 -151h-150l337 714h178l41 -714h-87l-45.5 -43t-25.5 -26q-15 -18 -22.5 -30t-10.5 -25q-4 -13 3.5 -20.5t21.5 -7.5q13 0 24 4t31 16zM263 269
h140l-2 321h-2z" />
    <glyph glyph-name="Cacute" unicode="&#x106;" horiz-adv-x="537" 
d="M453 473q16 78 5 113.5t-60 35.5q-27 0 -47.5 -14.5t-37 -47t-31.5 -85t-31 -128.5q-17 -81 -21.5 -131t1.5 -77.5t21 -37t38 -9.5q19 0 37 6.5t34 26t30 55t26 93.5h144q-12 -58 -31.5 -110t-52.5 -91.5t-82 -62.5t-120 -23q-81 0 -123.5 27.5t-57.5 76.5t-8.5 117.5
t23.5 149.5t39 149.5t57 117.5t89 76.5t135 27.5q77 0 115.5 -25t53 -63.5t11 -83t-11.5 -83.5h-144zM464 900h138l-128 -144h-94z" />
    <glyph glyph-name="Ccircumflex" unicode="&#x108;" horiz-adv-x="537" 
d="M453 473q16 78 5 113.5t-60 35.5q-27 0 -47.5 -14.5t-37 -47t-31.5 -85t-31 -128.5q-17 -81 -21.5 -131t1.5 -77.5t21 -37t38 -9.5q19 0 37 6.5t34 26t30 55t26 93.5h144q-12 -58 -31.5 -110t-52.5 -91.5t-82 -62.5t-120 -23q-81 0 -123.5 27.5t-57.5 76.5t-8.5 117.5
t23.5 149.5t39 149.5t57 117.5t89 76.5t135 27.5q77 0 115.5 -25t53 -63.5t11 -83t-11.5 -83.5h-144zM390 900h144l48 -144h-106l-28 85l-66 -85h-100z" />
    <glyph glyph-name="Ccaron" unicode="&#x10c;" horiz-adv-x="537" 
d="M453 473q16 78 5 113.5t-60 35.5q-27 0 -47.5 -14.5t-37 -47t-31.5 -85t-31 -128.5q-17 -81 -21.5 -131t1.5 -77.5t21 -37t38 -9.5q19 0 37 6.5t34 26t30 55t26 93.5h144q-12 -58 -31.5 -110t-52.5 -91.5t-82 -62.5t-120 -23q-81 0 -123.5 27.5t-57.5 76.5t-8.5 117.5
t23.5 149.5t39 149.5t57 117.5t89 76.5t135 27.5q77 0 115.5 -25t53 -63.5t11 -83t-11.5 -83.5h-144zM312 900h106l29 -85l65 85h100l-108 -144h-144z" />
    <glyph glyph-name="Cdotaccent" unicode="&#x10a;" horiz-adv-x="537" 
d="M453 473q16 78 5 113.5t-60 35.5q-27 0 -47.5 -14.5t-37 -47t-31.5 -85t-31 -128.5q-17 -81 -21.5 -131t1.5 -77.5t21 -37t38 -9.5q19 0 37 6.5t34 26t30 55t26 93.5h144q-12 -58 -31.5 -110t-52.5 -91.5t-82 -62.5t-120 -23q-81 0 -123.5 27.5t-57.5 76.5t-8.5 117.5
t23.5 149.5t39 149.5t57 117.5t89 76.5t135 27.5q77 0 115.5 -25t53 -63.5t11 -83t-11.5 -83.5h-144zM513 887l-25 -118h-112l25 118h112z" />
    <glyph glyph-name="Dcaron" unicode="&#x10e;" horiz-adv-x="574" 
d="M223 106h64q37 0 63.5 13t45.5 43t34 79t30 122q13 61 18.5 106.5t-0.5 76.5t-27.5 46.5t-62.5 15.5h-61zM205 714h236q75 0 116 -24.5t57 -70t11.5 -109.5t-20.5 -143q-20 -95 -45.5 -164t-63 -114t-89 -67t-123.5 -22h-227zM280 900h106l29 -85l65 85h100l-108 -144
h-144z" />
    <glyph glyph-name="Ecaron" unicode="&#x11a;" horiz-adv-x="481" 
d="M597 714l-25 -118h-255l-35 -168h240l-24 -118h-240l-40 -192h265l-24 -118h-409l148 714h399zM275 900h106l29 -85l65 85h100l-108 -144h-144z" />
    <glyph glyph-name="Emacron" unicode="&#x112;" horiz-adv-x="481" 
d="M597 714l-25 -118h-255l-35 -168h240l-24 -118h-240l-40 -192h265l-24 -118h-409l148 714h399zM566 866l-16 -76h-294l16 76h294z" />
    <glyph glyph-name="Ebreve" unicode="&#x114;" horiz-adv-x="481" 
d="M597 714l-25 -118h-255l-35 -168h240l-24 -118h-240l-40 -192h265l-24 -118h-409l148 714h399zM347 899q-3 -29 14.5 -47t46.5 -18t53.5 18t33.5 47h65q-5 -20 -16.5 -44.5t-31.5 -46t-49.5 -36t-70.5 -14.5t-64.5 14.5t-35 36t-13 46t2.5 44.5h65z" />
    <glyph glyph-name="Edotaccent" unicode="&#x116;" horiz-adv-x="481" 
d="M597 714l-25 -118h-255l-35 -168h240l-24 -118h-240l-40 -192h265l-24 -118h-409l148 714h399zM484 887l-25 -118h-112l25 118h112z" />
    <glyph glyph-name="Eogonek" unicode="&#x118;" horiz-adv-x="481" 
d="M421 -175q-36 -25 -63 -33.5t-61 -8.5q-28 0 -45.5 7.5t-26.5 19t-11 26.5t1 30q9 36 41.5 66.5t89.5 67.5h-296l148 714h399l-25 -118h-255l-35 -168h240l-24 -118h-240l-40 -192h265l-24 -118h-50l-45.5 -43t-25.5 -26q-15 -18 -22.5 -30t-10.5 -25q-4 -13 3.5 -20.5
t21.5 -7.5q13 0 24 4t31 16z" />
    <glyph glyph-name="Gcircumflex" unicode="&#x11c;" horiz-adv-x="556" 
d="M471 502q2 10 3 20t1 21q0 31 -14.5 55t-46.5 24q-52 0 -87 -58t-63 -192q-14 -65 -21 -116.5t-3.5 -88t19 -56t46.5 -19.5q13 0 29.5 7t33 21t30 35.5t19.5 50.5l16 73h-95l22 106h233l-80 -385h-106l13 66h-2q-34 -42 -74.5 -61t-91.5 -19q-66 0 -102.5 24.5
t-49.5 72.5t-7 118.5t25 163.5q19 90 45 158t63 113.5t88 68.5t120 23q59 0 98 -15t60 -43.5t24.5 -71t-7.5 -96.5h-138zM395 900h144l48 -144h-106l-28 85l-66 -85h-100z" />
    <glyph glyph-name="Gbreve" unicode="&#x11e;" horiz-adv-x="556" 
d="M471 502q2 10 3 20t1 21q0 31 -14.5 55t-46.5 24q-52 0 -87 -58t-63 -192q-14 -65 -21 -116.5t-3.5 -88t19 -56t46.5 -19.5q13 0 29.5 7t33 21t30 35.5t19.5 50.5l16 73h-95l22 106h233l-80 -385h-106l13 66h-2q-34 -42 -74.5 -61t-91.5 -19q-66 0 -102.5 24.5
t-49.5 72.5t-7 118.5t25 163.5q19 90 45 158t63 113.5t88 68.5t120 23q59 0 98 -15t60 -43.5t24.5 -71t-7.5 -96.5h-138zM385 899q-3 -29 14.5 -47t46.5 -18t53.5 18t33.5 47h65q-5 -20 -16.5 -44.5t-31.5 -46t-49.5 -36t-70.5 -14.5t-64.5 14.5t-35 36t-13 46t2.5 44.5h65z
" />
    <glyph glyph-name="Gdotaccent" unicode="&#x120;" horiz-adv-x="556" 
d="M471 502q2 10 3 20t1 21q0 31 -14.5 55t-46.5 24q-52 0 -87 -58t-63 -192q-14 -65 -21 -116.5t-3.5 -88t19 -56t46.5 -19.5q13 0 29.5 7t33 21t30 35.5t19.5 50.5l16 73h-95l22 106h233l-80 -385h-106l13 66h-2q-34 -42 -74.5 -61t-91.5 -19q-66 0 -102.5 24.5
t-49.5 72.5t-7 118.5t25 163.5q19 90 45 158t63 113.5t88 68.5t120 23q59 0 98 -15t60 -43.5t24.5 -71t-7.5 -96.5h-138zM517 887l-25 -118h-112l25 118h112z" />
    <glyph glyph-name="Gcommaaccent" unicode="&#x122;" horiz-adv-x="556" 
d="M471 502q2 10 3 20t1 21q0 31 -14.5 55t-46.5 24q-52 0 -87 -58t-63 -192q-14 -65 -21 -116.5t-3.5 -88t19 -56t46.5 -19.5q13 0 29.5 7t33 21t30 35.5t19.5 50.5l16 73h-95l22 106h233l-80 -385h-106l13 66h-2q-34 -42 -74.5 -61t-91.5 -19q-66 0 -102.5 24.5
t-49.5 72.5t-7 118.5t25 163.5q19 90 45 158t63 113.5t88 68.5t120 23q59 0 98 -15t60 -43.5t24.5 -71t-7.5 -96.5h-138zM330 -50l-20 -97q-7 -33 -20 -53.5t-29 -32t-34 -15.5t-36 -5l7 36q18 5 29.5 15.5t17.5 33.5h-51l24 118h112z" />
    <glyph glyph-name="Hcircumflex" unicode="&#x124;" horiz-adv-x="556" 
d="M198 714h144l-57 -273h168l57 273h144l-148 -714h-144l65 317h-168l-65 -317h-144zM393 900h144l48 -144h-106l-28 85l-66 -85h-100z" />
    <glyph glyph-name="Hbar" unicode="&#x126;" horiz-adv-x="556" 
d="M198 714h144l-30 -146h168l30 146h144l-148 -714h-144l63 300h-168l-63 -300h-144zM450 420l18 87h-168l-18 -87h168z" />
    <glyph glyph-name="Itilde" unicode="&#x128;" horiz-adv-x="258" 
d="M57 0l148 714h144l-148 -714h-144zM120 765q21 60 51 92t68 32q28 0 42 -7l43 -21q13 -6 29 -6q14 0 24 13t12 23h72q-9 -27 -21.5 -49.5t-27.5 -39t-33 -26t-37 -9.5q-16 0 -31 5.5t-29 11.5l-27 11.5t-25 5.5q-24 0 -40 -36h-70z" />
    <glyph glyph-name="Imacron" unicode="&#x12a;" horiz-adv-x="258" 
d="M57 0l148 714h144l-148 -714h-144zM448 866l-16 -76h-294l16 76h294z" />
    <glyph glyph-name="Idotaccent" unicode="&#x130;" horiz-adv-x="258" 
d="M57 0l148 714h144l-148 -714h-144zM368 887l-25 -118h-112l25 118h112z" />
    <glyph glyph-name="Iogonek" unicode="&#x12e;" horiz-adv-x="258" 
d="M186 -175q-36 -25 -63 -33.5t-61 -8.5q-28 0 -45.5 7.5t-26.5 19t-11 26.5t1 30q9 36 41.5 66.5t89.5 67.5h-54l148 714h144l-148 -714h-27l-45.5 -43t-25.5 -26q-15 -18 -22.5 -30t-10.5 -25q-4 -13 3.5 -20.5t21.5 -7.5q13 0 24 4t31 16z" />
    <glyph glyph-name="Jcircumflex" unicode="&#x134;" horiz-adv-x="463" 
d="M567 714l-107 -514q-24 -114 -87 -164t-172 -50q-57 0 -90 17t-48.5 45.5t-16 66.5t8.5 80l6 31h132l-4 -22q-12 -57 -5 -84.5t46 -27.5t57 27.5t30 84.5l106 510h144zM458 900h144l48 -144h-106l-28 85l-66 -85h-100z" />
    <glyph glyph-name="Kcommaaccent" unicode="&#x136;" horiz-adv-x="537" 
d="M342 714l-60 -286h2l242 286h156l-258 -306l132 -408h-162l-87 293l-69 -81l-44 -212h-144l148 714h144zM346 -50l-20 -97q-7 -33 -20 -53.5t-29 -32t-34 -15.5t-36 -5l7 36q18 5 29.5 15.5t17.5 33.5h-51l24 118h112z" />
    <glyph glyph-name="Lacute" unicode="&#x139;" horiz-adv-x="463" 
d="M50 0l148 714h144l-124 -596h255l-24 -118h-399zM311 900h138l-128 -144h-94z" />
    <glyph glyph-name="Lcaron" unicode="&#x13d;" horiz-adv-x="463" 
d="M50 0l148 714h144l-124 -596h255l-24 -118h-399zM421 714h122l-94 -144h-88z" />
    <glyph glyph-name="Lcommaaccent" unicode="&#x13b;" horiz-adv-x="463" 
d="M50 0l148 714h144l-124 -596h255l-24 -118h-399zM298 -50l-20 -97q-7 -33 -20 -53.5t-29 -32t-34 -15.5t-36 -5l7 36q18 5 29.5 15.5t17.5 33.5h-51l24 118h112z" />
    <glyph glyph-name="Nacute" unicode="&#x143;" horiz-adv-x="574" 
d="M364 714l72 -489h2l102 489h132l-148 -714h-164l-73 500h-2l-103 -500h-132l148 714h166zM465 900h138l-128 -144h-94z" />
    <glyph glyph-name="Ncaron" unicode="&#x147;" horiz-adv-x="574" 
d="M364 714l72 -489h2l102 489h132l-148 -714h-164l-73 500h-2l-103 -500h-132l148 714h166zM317 900h106l29 -85l65 85h100l-108 -144h-144z" />
    <glyph glyph-name="Ncommaaccent" unicode="&#x145;" horiz-adv-x="574" 
d="M364 714l72 -489h2l102 489h132l-148 -714h-164l-73 500h-2l-103 -500h-132l148 714h166zM335 -50l-20 -97q-7 -33 -20 -53.5t-29 -32t-34 -15.5t-36 -5l7 36q18 5 29.5 15.5t17.5 33.5h-51l24 118h112z" />
    <glyph glyph-name="Omacron" unicode="&#x14c;" horiz-adv-x="556" 
d="M253 357q-15 -72 -22 -122.5t-3 -82t20.5 -46t48.5 -14.5t54.5 14.5t39.5 46t31 82t29 122.5t22 122t3 82t-20.5 46.5t-48.5 14.5t-54.5 -14.5t-39.5 -46.5t-31 -82t-29 -122zM109 357q17 81 39 149.5t57 117.5t89 76.5t135 27.5t123.5 -27.5t57.5 -76.5t8.5 -117.5
t-23.5 -149.5t-39 -149.5t-57 -117.5t-89 -76.5t-135 -27.5t-123.5 27.5t-57.5 76.5t-8.5 117.5t23.5 149.5zM597 866l-16 -76h-294l16 76h294z" />
    <glyph glyph-name="Obreve" unicode="&#x14e;" horiz-adv-x="556" 
d="M253 357q-15 -72 -22 -122.5t-3 -82t20.5 -46t48.5 -14.5t54.5 14.5t39.5 46t31 82t29 122.5t22 122t3 82t-20.5 46.5t-48.5 14.5t-54.5 -14.5t-39.5 -46.5t-31 -82t-29 -122zM109 357q17 81 39 149.5t57 117.5t89 76.5t135 27.5t123.5 -27.5t57.5 -76.5t8.5 -117.5
t-23.5 -149.5t-39 -149.5t-57 -117.5t-89 -76.5t-135 -27.5t-123.5 27.5t-57.5 76.5t-8.5 117.5t23.5 149.5zM378 899q-3 -29 14.5 -47t46.5 -18t53.5 18t33.5 47h65q-5 -20 -16.5 -44.5t-31.5 -46t-49.5 -36t-70.5 -14.5t-64.5 14.5t-35 36t-13 46t2.5 44.5h65z" />
    <glyph glyph-name="Ohungarumlaut" unicode="&#x150;" horiz-adv-x="556" 
d="M253 357q-15 -72 -22 -122.5t-3 -82t20.5 -46t48.5 -14.5t54.5 14.5t39.5 46t31 82t29 122.5t22 122t3 82t-20.5 46.5t-48.5 14.5t-54.5 -14.5t-39.5 -46.5t-31 -82t-29 -122zM109 357q17 81 39 149.5t57 117.5t89 76.5t135 27.5t123.5 -27.5t57.5 -76.5t8.5 -117.5
t-23.5 -149.5t-39 -149.5t-57 -117.5t-89 -76.5t-135 -27.5t-123.5 27.5t-57.5 76.5t-8.5 117.5t23.5 149.5zM554 900h138l-128 -144h-94zM388 900h138l-128 -144h-94z" />
    <glyph glyph-name="Racute" unicode="&#x154;" horiz-adv-x="556" 
d="M198 714h266q90 0 130.5 -45.5t21.5 -138.5q-15 -72 -53.5 -117.5t-102.5 -58.5v-2q36 -5 55.5 -18.5t26 -39t2.5 -64.5t-15 -96t-11.5 -87t17.5 -41l-1 -6h-156q-8 15 -7.5 34.5t4.5 40.5l25 137q7 42 -7.5 66t-59.5 24h-77l-62 -302h-144zM277 402h60q52 0 85 24.5
t45 82.5q21 99 -79 99h-68zM423 900h138l-128 -144h-94z" />
    <glyph glyph-name="Rcaron" unicode="&#x158;" horiz-adv-x="556" 
d="M198 714h266q90 0 130.5 -45.5t21.5 -138.5q-15 -72 -53.5 -117.5t-102.5 -58.5v-2q36 -5 55.5 -18.5t26 -39t2.5 -64.5t-15 -96t-11.5 -87t17.5 -41l-1 -6h-156q-8 15 -7.5 34.5t4.5 40.5l25 137q7 42 -7.5 66t-59.5 24h-77l-62 -302h-144zM277 402h60q52 0 85 24.5
t45 82.5q21 99 -79 99h-68zM280 900h106l29 -85l65 85h100l-108 -144h-144z" />
    <glyph glyph-name="Rcommaaccent" unicode="&#x156;" horiz-adv-x="556" 
d="M198 714h266q90 0 130.5 -45.5t21.5 -138.5q-15 -72 -53.5 -117.5t-102.5 -58.5v-2q36 -5 55.5 -18.5t26 -39t2.5 -64.5t-15 -96t-11.5 -87t17.5 -41l-1 -6h-156q-8 15 -7.5 34.5t4.5 40.5l25 137q7 42 -7.5 66t-59.5 24h-77l-62 -302h-144zM277 402h60q52 0 85 24.5
t45 82.5q21 99 -79 99h-68zM338 -50l-20 -97q-7 -33 -20 -53.5t-29 -32t-34 -15.5t-36 -5l7 36q18 5 29.5 15.5t17.5 33.5h-51l24 118h112z" />
    <glyph glyph-name="Sacute" unicode="&#x15a;" horiz-adv-x="519" 
d="M212 223l-5 -21q-2 -13 -3.5 -24t-1.5 -22q0 -29 17.5 -46.5t60.5 -17.5q33 0 63.5 21.5t40.5 66.5q5 24 2 41.5t-15.5 31.5t-34.5 25.5t-55 23.5q-45 16 -76 35t-49 44.5t-22 59t5 77.5q22 106 92 158t173 52q48 0 86.5 -10.5t62.5 -34t33 -60t-1 -87.5l-4 -20h-138
q11 51 -1.5 78.5t-54.5 27.5q-24 0 -41.5 -7t-29.5 -18.5t-18.5 -26.5t-9.5 -31q-8 -33 2 -55.5t51 -41.5l101 -48q37 -18 59.5 -37.5t33 -42t11 -49.5t-6.5 -60q-23 -113 -99.5 -166t-193.5 -53q-122 0 -163.5 54.5t-20.5 153.5l6 29h144zM445 900h138l-128 -144h-94z" />
    <glyph glyph-name="Scircumflex" unicode="&#x15c;" horiz-adv-x="519" 
d="M212 223l-5 -21q-2 -13 -3.5 -24t-1.5 -22q0 -29 17.5 -46.5t60.5 -17.5q33 0 63.5 21.5t40.5 66.5q5 24 2 41.5t-15.5 31.5t-34.5 25.5t-55 23.5q-45 16 -76 35t-49 44.5t-22 59t5 77.5q22 106 92 158t173 52q48 0 86.5 -10.5t62.5 -34t33 -60t-1 -87.5l-4 -20h-138
q11 51 -1.5 78.5t-54.5 27.5q-24 0 -41.5 -7t-29.5 -18.5t-18.5 -26.5t-9.5 -31q-8 -33 2 -55.5t51 -41.5l101 -48q37 -18 59.5 -37.5t33 -42t11 -49.5t-6.5 -60q-23 -113 -99.5 -166t-193.5 -53q-122 0 -163.5 54.5t-20.5 153.5l6 29h144zM379 900h144l48 -144h-106l-28 85
l-66 -85h-100z" />
    <glyph glyph-name="Scedilla" unicode="&#x15e;" horiz-adv-x="519" 
d="M212 223l-5 -21q-2 -13 -3.5 -24t-1.5 -22q0 -29 17.5 -46.5t60.5 -17.5q33 0 63.5 21.5t40.5 66.5q5 24 2 41.5t-15.5 31.5t-34.5 25.5t-55 23.5q-45 16 -76 35t-49 44.5t-22 59t5 77.5q22 106 92 158t173 52q48 0 86.5 -10.5t62.5 -34t33 -60t-1 -87.5l-4 -20h-138
q11 51 -1.5 78.5t-54.5 27.5q-24 0 -41.5 -7t-29.5 -18.5t-18.5 -26.5t-9.5 -31q-8 -33 2 -55.5t51 -41.5l101 -48q37 -18 59.5 -37.5t33 -42t11 -49.5t-6.5 -60q-23 -113 -100 -166q-65 -44 -162 -52l-38 -45q10 3 17.5 4t19.5 1q16 0 29 -4.5t22 -13.5t12.5 -22.5
t-0.5 -31.5q-10 -42 -47.5 -67t-98.5 -25q-28 0 -50 4.5t-45 14.5l28 46q17 -9 32 -12t33 -3q21 0 37.5 10t20.5 22q4 15 -6.5 24.5t-30.5 9.5q-11 0 -18.5 -1.5t-16.5 -4.5l-18 20l64 74q-103 4 -141 53q-41 56 -20 154l6 29h144z" />
    <glyph glyph-name="Scedilla" unicode="&#xf6c1;" horiz-adv-x="519" 
d="M212 223l-5 -21q-2 -13 -3.5 -24t-1.5 -22q0 -29 17.5 -46.5t60.5 -17.5q33 0 63.5 21.5t40.5 66.5q5 24 2 41.5t-15.5 31.5t-34.5 25.5t-55 23.5q-45 16 -76 35t-49 44.5t-22 59t5 77.5q22 106 92 158t173 52q48 0 86.5 -10.5t62.5 -34t33 -60t-1 -87.5l-4 -20h-138
q11 51 -1.5 78.5t-54.5 27.5q-24 0 -41.5 -7t-29.5 -18.5t-18.5 -26.5t-9.5 -31q-8 -33 2 -55.5t51 -41.5l101 -48q37 -18 59.5 -37.5t33 -42t11 -49.5t-6.5 -60q-23 -113 -100 -166q-65 -44 -162 -52l-38 -45q10 3 17.5 4t19.5 1q16 0 29 -4.5t22 -13.5t12.5 -22.5
t-0.5 -31.5q-10 -42 -47.5 -67t-98.5 -25q-28 0 -50 4.5t-45 14.5l28 46q17 -9 32 -12t33 -3q21 0 37.5 10t20.5 22q4 15 -6.5 24.5t-30.5 9.5q-11 0 -18.5 -1.5t-16.5 -4.5l-18 20l64 74q-103 4 -141 53q-41 56 -20 154l6 29h144z" />
    <glyph glyph-name="Scommaaccent" unicode="&#x218;" horiz-adv-x="519" 
d="M212 223l-5 -21q-2 -13 -3.5 -24t-1.5 -22q0 -29 17.5 -46.5t60.5 -17.5q33 0 63.5 21.5t40.5 66.5q5 24 2 41.5t-15.5 31.5t-34.5 25.5t-55 23.5q-45 16 -76 35t-49 44.5t-22 59t5 77.5q22 106 92 158t173 52q48 0 86.5 -10.5t62.5 -34t33 -60t-1 -87.5l-4 -20h-138
q11 51 -1.5 78.5t-54.5 27.5q-24 0 -41.5 -7t-29.5 -18.5t-18.5 -26.5t-9.5 -31q-8 -33 2 -55.5t51 -41.5l101 -48q37 -18 59.5 -37.5t33 -42t11 -49.5t-6.5 -60q-23 -113 -99.5 -166t-193.5 -53q-122 0 -163.5 54.5t-20.5 153.5l6 29h144zM301 -50l-20 -97
q-7 -33 -20 -53.5t-29 -32t-34 -15.5t-36 -5l7 36q18 5 29.5 15.5t17.5 33.5h-51l24 118h112z" />
    <glyph glyph-name="Tcaron" unicode="&#x164;" 
d="M616 714l-25 -118h-156l-123 -596h-144l123 596h-156l25 118h456zM272 900h106l29 -85l65 85h100l-108 -144h-144z" />
    <glyph glyph-name="Tcommaaccent" unicode="&#x162;" 
d="M616 714l-25 -118h-156l-123 -596h-144l123 596h-156l25 118h456zM287 -50l-20 -97q-7 -33 -20 -53.5t-29 -32t-34 -15.5t-36 -5l7 36q18 5 29.5 15.5t17.5 33.5h-51l24 118h112z" />
    <glyph glyph-name="Tbar" unicode="&#x166;" 
d="M616 714l-25 -118h-156l-27 -130h112l-13 -61h-112l-83 -405h-144l83 405h-111l14 61h110l27 130h-156l25 118h456z" />
    <glyph glyph-name="Utilde" unicode="&#x168;" horiz-adv-x="538" 
d="M333 714l-104 -498q-5 -27 -6 -49.5t5 -39t20 -26t40 -9.5q25 0 43.5 9.5t31.5 26t21 39t13 49.5l104 498h144l-104 -498q-14 -68 -42 -112.5t-65.5 -70.5t-80.5 -36.5t-87 -10.5t-83 9t-66 34.5t-37 70t5 116.5l104 498h144zM265 765q21 60 51 92t68 32q28 0 42 -7
l43 -21q13 -6 29 -6q14 0 24 13t12 23h72q-9 -27 -21.5 -49.5t-27.5 -39t-33 -26t-37 -9.5q-16 0 -31 5.5t-29 11.5l-27 11.5t-25 5.5q-24 0 -40 -36h-70z" />
    <glyph glyph-name="Umacron" unicode="&#x16a;" horiz-adv-x="538" 
d="M333 714l-104 -498q-5 -27 -6 -49.5t5 -39t20 -26t40 -9.5q25 0 43.5 9.5t31.5 26t21 39t13 49.5l104 498h144l-104 -498q-14 -68 -42 -112.5t-65.5 -70.5t-80.5 -36.5t-87 -10.5t-83 9t-66 34.5t-37 70t5 116.5l104 498h144zM590 866l-16 -76h-294l16 76h294z" />
    <glyph glyph-name="Ubreve" unicode="&#x16c;" horiz-adv-x="538" 
d="M333 714l-104 -498q-5 -27 -6 -49.5t5 -39t20 -26t40 -9.5q25 0 43.5 9.5t31.5 26t21 39t13 49.5l104 498h144l-104 -498q-14 -68 -42 -112.5t-65.5 -70.5t-80.5 -36.5t-87 -10.5t-83 9t-66 34.5t-37 70t5 116.5l104 498h144zM371 899q-3 -29 14.5 -47t46.5 -18t53.5 18
t33.5 47h65q-5 -20 -16.5 -44.5t-31.5 -46t-49.5 -36t-70.5 -14.5t-64.5 14.5t-35 36t-13 46t2.5 44.5h65z" />
    <glyph glyph-name="Uring" unicode="&#x16e;" horiz-adv-x="538" 
d="M333 714l-104 -498q-5 -27 -6 -49.5t5 -39t20 -26t40 -9.5q25 0 43.5 9.5t31.5 26t21 39t13 49.5l104 498h144l-104 -498q-14 -68 -42 -112.5t-65.5 -70.5t-80.5 -36.5t-87 -10.5t-83 9t-66 34.5t-37 70t5 116.5l104 498h144zM379 844q-10 -58 46 -58q24 0 44.5 17
t25.5 41q10 58 -46 58q-24 0 -44.5 -17t-25.5 -41zM323 844q11 50 50.5 80t87.5 30q46 0 73 -29.5t17 -80.5q-5 -24 -18.5 -45t-32.5 -35.5t-41.5 -22t-45.5 -5.5q-23 -2 -42 5.5t-31.5 22t-17.5 35t1 45.5z" />
    <glyph glyph-name="Uhungarumlaut" unicode="&#x170;" horiz-adv-x="538" 
d="M333 714l-104 -498q-5 -27 -6 -49.5t5 -39t20 -26t40 -9.5q25 0 43.5 9.5t31.5 26t21 39t13 49.5l104 498h144l-104 -498q-14 -68 -42 -112.5t-65.5 -70.5t-80.5 -36.5t-87 -10.5t-83 9t-66 34.5t-37 70t5 116.5l104 498h144zM543 900h138l-128 -144h-94zM377 900h138
l-128 -144h-94z" />
    <glyph glyph-name="Uogonek" unicode="&#x172;" horiz-adv-x="538" 
d="M330 -175q-36 -25 -63 -33.5t-61 -8.5q-28 0 -45.5 7.5t-26.5 19t-11 26.5t1 30q9 35 42 67q27 25 69 54q-14 1 -26.5 3t-25.5 5q-29 7 -52 22.5t-37 42t-17 65t8 91.5l104 498h144l-104 -498q-5 -27 -6 -49.5t5 -39t20 -26t40 -9.5q25 0 43.5 9.5t31.5 26t21 39t13 49.5
l104 498h144l-104 -498q-11 -51 -29.5 -88.5t-43 -64t-54 -43t-61.5 -23.5q-24 -6 -48 -9q-22 -20 -36.5 -34.5t-21.5 -22.5q-15 -18 -22.5 -30t-10.5 -25q-4 -13 3.5 -20.5t21.5 -7.5q13 0 24 4t31 16z" />
    <glyph glyph-name="Wcircumflex" unicode="&#x174;" horiz-adv-x="760" 
d="M156 714h138l-31 -528h2l194 528h138l-26 -528h2l189 528h138l-278 -714h-161l27 518h-2l-187 -518h-161zM499 900h144l48 -144h-106l-28 85l-66 -85h-100z" />
    <glyph glyph-name="Ycircumflex" unicode="&#x176;" horiz-adv-x="520" 
d="M313 714l37 -276h2l157 276h156l-275 -433l-58 -281h-144l58 281l-95 433h162zM378 900h144l48 -144h-106l-28 85l-66 -85h-100z" />
    <glyph glyph-name="Zacute" unicode="&#x179;" horiz-adv-x="481" 
d="M45 105l365 491h-245l25 118h411l-23 -109l-368 -487h271l-24 -118h-433zM428 900h138l-128 -144h-94z" />
    <glyph glyph-name="Zdotaccent" unicode="&#x17b;" horiz-adv-x="481" 
d="M45 105l365 491h-245l25 118h411l-23 -109l-368 -487h271l-24 -118h-433zM479 887l-25 -118h-112l25 118h112z" />
    <glyph glyph-name="amacron" unicode="&#x101;" horiz-adv-x="481" 
d="M352 269q-16 -11 -33 -17.5t-31 -9.5q-45 -9 -66.5 -30t-29.5 -57q-7 -31 0.5 -53t35.5 -22q29 0 60 19t42 64zM122 373l3 13q10 46 31.5 78t51 51.5t65.5 28t75 8.5q62 0 97.5 -12t52 -34t17.5 -52.5t-6 -66.5l-59 -283q-4 -19 -6 -33t-2.5 -26t0.5 -22.5t4 -22.5h-132
q-5 13 -5.5 27.5t-0.5 28.5h-2q-32 -42 -67 -56t-84 -14q-36 0 -58 14t-33 36t-12 49.5t5 54.5q8 38 21.5 65.5t34 47t49 32.5t66.5 23l82 21q32 8 47.5 22t20.5 41q7 31 -4 48.5t-46 17.5q-32 0 -52 -19t-27 -51l-3 -15h-124zM530 712l-16 -76h-294l16 76h294z" />
    <glyph glyph-name="abreve" unicode="&#x103;" horiz-adv-x="481" 
d="M352 269q-16 -11 -33 -17.5t-31 -9.5q-45 -9 -66.5 -30t-29.5 -57q-7 -31 0.5 -53t35.5 -22q29 0 60 19t42 64zM122 373l3 13q10 46 31.5 78t51 51.5t65.5 28t75 8.5q62 0 97.5 -12t52 -34t17.5 -52.5t-6 -66.5l-59 -283q-4 -19 -6 -33t-2.5 -26t0.5 -22.5t4 -22.5h-132
q-5 13 -5.5 27.5t-0.5 28.5h-2q-32 -42 -67 -56t-84 -14q-36 0 -58 14t-33 36t-12 49.5t5 54.5q8 38 21.5 65.5t34 47t49 32.5t66.5 23l82 21q32 8 47.5 22t20.5 41q7 31 -4 48.5t-46 17.5q-32 0 -52 -19t-27 -51l-3 -15h-124zM313 745q-3 -29 14.5 -47t46.5 -18t53.5 18
t33.5 47h65q-5 -20 -16.5 -44.5t-31.5 -46t-49.5 -36t-70.5 -14.5t-64.5 14.5t-35 36t-13 46t2.5 44.5h65z" />
    <glyph glyph-name="aogonek" unicode="&#x105;" horiz-adv-x="481" 
d="M382 -175q-32 -25 -56.5 -33.5t-55.5 -8.5q-24 0 -40 7.5t-24 19t-10 26.5t1 30q8 36 37.5 66.5t80.5 67.5h-1q-5 13 -5.5 27.5t-0.5 28.5h-2q-32 -42 -67 -56t-84 -14q-36 0 -58 14t-33 36t-12 49.5t5 54.5q8 38 21.5 65.5t34 47t49 32.5t66.5 23l82 21q32 8 47.5 22
t20.5 41q7 31 -4 48.5t-46 17.5q-32 0 -52 -19t-27 -51l-3 -15h-124l3 13q10 46 31.5 78t51 51.5t65.5 28t75 8.5q62 0 97.5 -12t52 -34t17.5 -52.5t-6 -66.5l-59 -283q-4 -19 -6 -33t-2.5 -26t0.5 -22.5t4 -22.5h-75q-50 -51 -63 -69q-14 -18 -21 -30t-9 -25
q-4 -13 3 -20.5t19 -7.5t22 4t28 16zM352 269q-16 -11 -33 -17.5t-31 -9.5q-45 -9 -66.5 -30t-29.5 -57q-7 -31 0.5 -53t35.5 -22q29 0 60 19t42 64z" />
    <glyph glyph-name="cacute" unicode="&#x107;" horiz-adv-x="463" 
d="M376 344q4 19 5.5 38.5t-2 35t-14 25t-29.5 9.5q-26 0 -43.5 -11.5t-30.5 -34t-23 -57.5t-20 -81q-10 -50 -14.5 -85.5t-1.5 -58.5t15.5 -33.5t35.5 -10.5q35 0 57 30t36 96h132q-22 -106 -81 -163t-169 -57q-51 0 -87 14t-55 46.5t-21 87t15 135.5q17 83 44.5 137.5
t63.5 87t78.5 45.5t90.5 13q95 0 132 -56.5t18 -151.5h-132zM396 746h138l-128 -144h-94z" />
    <glyph glyph-name="ccircumflex" unicode="&#x109;" horiz-adv-x="463" 
d="M376 344q4 19 5.5 38.5t-2 35t-14 25t-29.5 9.5q-26 0 -43.5 -11.5t-30.5 -34t-23 -57.5t-20 -81q-10 -50 -14.5 -85.5t-1.5 -58.5t15.5 -33.5t35.5 -10.5q35 0 57 30t36 96h132q-22 -106 -81 -163t-169 -57q-51 0 -87 14t-55 46.5t-21 87t15 135.5q17 83 44.5 137.5
t63.5 87t78.5 45.5t90.5 13q95 0 132 -56.5t18 -151.5h-132zM324 746h144l48 -144h-106l-28 85l-66 -85h-100z" />
    <glyph glyph-name="ccaron" unicode="&#x10d;" horiz-adv-x="463" 
d="M376 344q4 19 5.5 38.5t-2 35t-14 25t-29.5 9.5q-26 0 -43.5 -11.5t-30.5 -34t-23 -57.5t-20 -81q-10 -50 -14.5 -85.5t-1.5 -58.5t15.5 -33.5t35.5 -10.5q35 0 57 30t36 96h132q-22 -106 -81 -163t-169 -57q-51 0 -87 14t-55 46.5t-21 87t15 135.5q17 83 44.5 137.5
t63.5 87t78.5 45.5t90.5 13q95 0 132 -56.5t18 -151.5h-132zM241 746h106l29 -85l65 85h100l-108 -144h-144z" />
    <glyph glyph-name="cdotaccent" unicode="&#x10b;" horiz-adv-x="463" 
d="M376 344q4 19 5.5 38.5t-2 35t-14 25t-29.5 9.5q-26 0 -43.5 -11.5t-30.5 -34t-23 -57.5t-20 -81q-10 -50 -14.5 -85.5t-1.5 -58.5t15.5 -33.5t35.5 -10.5q35 0 57 30t36 96h132q-22 -106 -81 -163t-169 -57q-51 0 -87 14t-55 46.5t-21 87t15 135.5q17 83 44.5 137.5
t63.5 87t78.5 45.5t90.5 13q95 0 132 -56.5t18 -151.5h-132zM447 733l-25 -118h-112l25 118h112z" />
    <glyph glyph-name="dcaron" unicode="&#x10f;" horiz-adv-x="613" 
d="M333 57h-2q-30 -38 -62 -54.5t-74 -16.5q-85 0 -111.5 66.5t4.5 216.5t85 216.5t139 66.5q39 0 63.5 -16t39.5 -48h2l47 226h138l-148 -714h-132zM226 269q-18 -88 -13.5 -132.5t49.5 -44.5q46 0 68.5 44.5t40.5 132.5q19 88 14.5 132.5t-50.5 44.5q-45 0 -67.5 -44.5
t-41.5 -132.5zM670 714h122l-94 -144h-88z" />
    <glyph glyph-name="dcroat" unicode="&#x111;" horiz-adv-x="533" 
d="M333 57h-2q-30 -38 -62 -54.5t-74 -16.5q-85 0 -111.5 66.5t4.5 216.5t85 216.5t139 66.5q39 0 63.5 -16t39.5 -48h2l20 98h-105l13 61h105l14 67h138l-14 -67h92l-13 -61h-92l-121 -586h-132zM226 269q-18 -88 -13.5 -132.5t49.5 -44.5q46 0 68.5 44.5t40.5 132.5
q19 88 14.5 132.5t-50.5 44.5q-45 0 -67.5 -44.5t-41.5 -132.5z" />
    <glyph glyph-name="ecaron" unicode="&#x11b;" horiz-adv-x="463" 
d="M373 330q5 31 7 54.5t-2 40t-15.5 25t-32.5 8.5t-36.5 -9.5t-27 -25t-19 -34.5t-11.5 -38l-4 -21h141zM215 248l-9 -43q-5 -24 -6 -46.5t3 -40t15 -28t30 -10.5q35 0 56 25t38 76h124q-23 -94 -79.5 -144.5t-155.5 -50.5q-75 0 -111.5 26t-48 67.5t-5.5 93t16 101.5
q11 54 28.5 104t48.5 89t78 62t117 23q60 0 94.5 -19.5t49 -55t12.5 -86t-15 -112.5l-7 -31h-273zM235 746h106l29 -85l65 85h100l-108 -144h-144z" />
    <glyph glyph-name="emacron" unicode="&#x113;" horiz-adv-x="463" 
d="M373 330q5 31 7 54.5t-2 40t-15.5 25t-32.5 8.5t-36.5 -9.5t-27 -25t-19 -34.5t-11.5 -38l-4 -21h141zM215 248l-9 -43q-5 -24 -6 -46.5t3 -40t15 -28t30 -10.5q35 0 56 25t38 76h124q-23 -94 -79.5 -144.5t-155.5 -50.5q-75 0 -111.5 26t-48 67.5t-5.5 93t16 101.5
q11 54 28.5 104t48.5 89t78 62t117 23q60 0 94.5 -19.5t49 -55t12.5 -86t-15 -112.5l-7 -31h-273zM523 712l-16 -76h-294l16 76h294z" />
    <glyph glyph-name="ebreve" unicode="&#x115;" horiz-adv-x="463" 
d="M373 330q5 31 7 54.5t-2 40t-15.5 25t-32.5 8.5t-36.5 -9.5t-27 -25t-19 -34.5t-11.5 -38l-4 -21h141zM215 248l-9 -43q-5 -24 -6 -46.5t3 -40t15 -28t30 -10.5q35 0 56 25t38 76h124q-23 -94 -79.5 -144.5t-155.5 -50.5q-75 0 -111.5 26t-48 67.5t-5.5 93t16 101.5
q11 54 28.5 104t48.5 89t78 62t117 23q60 0 94.5 -19.5t49 -55t12.5 -86t-15 -112.5l-7 -31h-273zM301 745q-3 -29 14.5 -47t46.5 -18t53.5 18t33.5 47h65q-5 -20 -16.5 -44.5t-31.5 -46t-49.5 -36t-70.5 -14.5t-64.5 14.5t-35 36t-13 46t2.5 44.5h65z" />
    <glyph glyph-name="edotaccent" unicode="&#x117;" horiz-adv-x="463" 
d="M373 330q5 31 7 54.5t-2 40t-15.5 25t-32.5 8.5t-36.5 -9.5t-27 -25t-19 -34.5t-11.5 -38l-4 -21h141zM215 248l-9 -43q-5 -24 -6 -46.5t3 -40t15 -28t30 -10.5q35 0 56 25t38 76h124q-23 -94 -79.5 -144.5t-155.5 -50.5q-75 0 -111.5 26t-48 67.5t-5.5 93t16 101.5
q11 54 28.5 104t48.5 89t78 62t117 23q60 0 94.5 -19.5t49 -55t12.5 -86t-15 -112.5l-7 -31h-273zM442 733l-25 -118h-112l25 118h112z" />
    <glyph glyph-name="eogonek" unicode="&#x119;" horiz-adv-x="463" 
d="M309 -175q-36 -25 -63 -33.5t-61 -8.5q-28 0 -45.5 7.5t-26.5 19t-11 26.5t1 30q9 35 42 67q24 23 68 54q-61 1 -94 25q-28 18 -40 47.5t-14 64.5t3.5 73.5t13.5 76.5q11 54 28.5 104t48.5 89t78 62t117 23q60 0 94.5 -19.5t49 -55t12.5 -86t-15 -112.5l-7 -31h-273
l-9 -43q-5 -24 -6 -46.5t3 -40t15 -28t30 -10.5q35 0 56 25t38 76h124q-22 -93 -80 -145q-41 -35 -99 -45l-38.5 -37t-22.5 -23q-15 -18 -22.5 -30t-10.5 -25q-4 -13 3.5 -20.5t21.5 -7.5q13 0 24 4t31 16zM373 330q5 31 7 54.5t-2 40t-15.5 25t-32.5 8.5t-36.5 -9.5
t-27 -25t-19 -34.5t-11.5 -38l-4 -21h141z" />
    <glyph glyph-name="gcircumflex" unicode="&#x11d;" horiz-adv-x="500" 
d="M225 252q-6 -28 -8.5 -53t1 -44.5t14.5 -31t33 -11.5q43 0 68 43t39 111q20 98 13 139t-48 41q-23 0 -39 -10t-28.5 -32.5t-23 -60t-21.5 -91.5zM560 538l-106 -511q-22 -107 -84.5 -159t-183.5 -52q-88 0 -127.5 37.5t-25.5 106.5h132q-5 -26 13 -41t43 -15
q42 0 64.5 27.5t31.5 69.5l14 71h-2q-27 -30 -61 -48t-67 -18q-41 0 -69 15t-42 47.5t-13.5 84t15.5 125.5q10 47 25.5 96t41 88.5t64 64.5t95.5 25q29 0 57 -16t39 -58h2l12 60h132zM342 746h144l48 -144h-106l-28 85l-66 -85h-100z" />
    <glyph glyph-name="gbreve" unicode="&#x11f;" horiz-adv-x="500" 
d="M225 252q-6 -28 -8.5 -53t1 -44.5t14.5 -31t33 -11.5q43 0 68 43t39 111q20 98 13 139t-48 41q-23 0 -39 -10t-28.5 -32.5t-23 -60t-21.5 -91.5zM560 538l-106 -511q-22 -107 -84.5 -159t-183.5 -52q-88 0 -127.5 37.5t-25.5 106.5h132q-5 -26 13 -41t43 -15
q42 0 64.5 27.5t31.5 69.5l14 71h-2q-27 -30 -61 -48t-67 -18q-41 0 -69 15t-42 47.5t-13.5 84t15.5 125.5q10 47 25.5 96t41 88.5t64 64.5t95.5 25q29 0 57 -16t39 -58h2l12 60h132zM330 745q-3 -29 14.5 -47t46.5 -18t53.5 18t33.5 47h65q-5 -20 -16.5 -44.5t-31.5 -46
t-49.5 -36t-70.5 -14.5t-64.5 14.5t-35 36t-13 46t2.5 44.5h65z" />
    <glyph glyph-name="gdotaccent" unicode="&#x121;" horiz-adv-x="500" 
d="M225 252q-6 -28 -8.5 -53t1 -44.5t14.5 -31t33 -11.5q43 0 68 43t39 111q20 98 13 139t-48 41q-23 0 -39 -10t-28.5 -32.5t-23 -60t-21.5 -91.5zM560 538l-106 -511q-22 -107 -84.5 -159t-183.5 -52q-88 0 -127.5 37.5t-25.5 106.5h132q-5 -26 13 -41t43 -15
q42 0 64.5 27.5t31.5 69.5l14 71h-2q-27 -30 -61 -48t-67 -18q-41 0 -69 15t-42 47.5t-13.5 84t15.5 125.5q10 47 25.5 96t41 88.5t64 64.5t95.5 25q29 0 57 -16t39 -58h2l12 60h132zM454 733l-25 -118h-112l25 118h112z" />
    <glyph glyph-name="gcommaaccent" unicode="&#x123;" horiz-adv-x="500" 
d="M225 252q-6 -28 -8.5 -53t1 -44.5t14.5 -31t33 -11.5q43 0 68 43t39 111q20 98 13 139t-48 41q-23 0 -39 -10t-28.5 -32.5t-23 -60t-21.5 -91.5zM560 538l-106 -511q-22 -107 -84.5 -159t-183.5 -52q-88 0 -127.5 37.5t-25.5 106.5h132q-5 -26 13 -41t43 -15
q42 0 64.5 27.5t31.5 69.5l14 71h-2q-27 -30 -61 -48t-67 -18q-41 0 -69 15t-42 47.5t-13.5 84t15.5 125.5q10 47 25.5 96t41 88.5t64 64.5t95.5 25q29 0 57 -16t39 -58h2l12 60h132zM335 1167l21 97q6 33 19 53.5t29.5 32t34.5 15.5t36 5l-8 -36q-18 -5 -29 -15.5
t-17 -33.5h51l-25 -118h-112zM320 596l21 97q6 33 19 53.5t29.5 32t34.5 15.5t36 5l-8 -36q-18 -5 -29 -15.5t-17 -33.5h51l-25 -118h-112z" />
    <glyph glyph-name="hcircumflex" unicode="&#x125;" horiz-adv-x="500" 
d="M194 714h138l-48 -231h2q26 35 63 52t82 17q66 0 94 -36t11 -117l-82 -399h-138l77 371q8 42 -2.5 58.5t-41.5 16.5q-73 0 -91 -89l-74 -357h-138zM363 900h144l48 -144h-106l-28 85l-66 -85h-100z" />
    <glyph glyph-name="hbar" unicode="&#x127;" horiz-adv-x="534" 
d="M228 714h138l-14 -67h114l-13 -61h-114l-21 -103h2q26 35 63 52t82 17q66 0 94 -36t11 -117l-82 -399h-138l77 371q8 42 -2.5 58.5t-41.5 16.5q-73 0 -91 -89l-74 -357h-138l121 586h-98l13 61h98z" />
    <glyph glyph-name="itilde" unicode="&#x129;" horiz-adv-x="240" 
d="M162 538h138l-111 -538h-138zM79 611q21 60 51 92t68 32q28 0 42 -7l43 -21q13 -6 29 -6q14 0 24 13t12 23h72q-9 -27 -21.5 -49.5t-27.5 -39t-33 -26t-37 -9.5q-16 0 -31 5.5t-29 11.5l-27 11.5t-25 5.5q-24 0 -40 -36h-70z" />
    <glyph glyph-name="imacron" unicode="&#x12b;" horiz-adv-x="240" 
d="M162 538h138l-111 -538h-138zM406 712l-16 -76h-294l16 76h294z" />
    <glyph glyph-name="iogonek" unicode="&#x12f;" horiz-adv-x="240" 
d="M176 -175q-32 -25 -56.5 -33.5t-55.5 -8.5q-24 0 -40 7.5t-24 19t-10 26.5t1 30q8 36 37.5 66.5t80.5 67.5h-58l111 538h138l-111 -538h-24q-50 -51 -63 -69q-14 -18 -21 -30t-9 -25q-4 -13 3 -20.5t19 -7.5t22 4t28 16zM201 722h138l-25 -118h-138z" />
    <glyph glyph-name="dotlessj" unicode="&#xf6be;" horiz-adv-x="240" 
d="M162 538h138l-119 -575q-7 -34 -19.5 -60t-34.5 -43.5t-54 -26.5t-78 -9q-12 0 -26.5 0.5t-29.5 1.5l21 100q6 -2 11 -2h11q18 0 29.5 5t19 15.5t12.5 26.5t10 39z" />
    <glyph glyph-name="dotlessj" unicode="&#xfb0f;" horiz-adv-x="240" 
d="M162 538h138l-119 -575q-7 -34 -19.5 -60t-34.5 -43.5t-54 -26.5t-78 -9q-12 0 -26.5 0.5t-29.5 1.5l21 100q6 -2 11 -2h11q18 0 29.5 5t19 15.5t12.5 26.5t10 39z" />
    <glyph glyph-name="jcircumflex" unicode="&#x135;" horiz-adv-x="240" 
d="M162 538h138l-119 -575q-7 -34 -19.5 -60t-34.5 -43.5t-54 -26.5t-78 -9q-12 0 -26.5 0.5t-29.5 1.5l21 100q6 -2 11 -2h11q18 0 29.5 5t19 15.5t12.5 26.5t10 39zM200 746h144l48 -144h-106l-28 85l-66 -85h-100z" />
    <glyph glyph-name="kcommaaccent" unicode="&#x137;" horiz-adv-x="500" 
d="M337 714l-78 -377h2l180 201h152l-199 -212l111 -326h-152l-70 221l-62 -64l-32 -157h-138l148 714h138zM321 -50l-20 -97q-7 -33 -20 -53.5t-29 -32t-34 -15.5t-36 -5l7 36q18 5 29.5 15.5t17.5 33.5h-51l24 118h112z" />
    <glyph glyph-name="lacute" unicode="&#x13a;" horiz-adv-x="240" 
d="M199 714h138l-148 -714h-138zM296 900h138l-128 -144h-94z" />
    <glyph glyph-name="lcaron" unicode="&#x13e;" horiz-adv-x="349" 
d="M199 714h138l-148 -714h-138zM406 714h122l-94 -144h-88z" />
    <glyph glyph-name="lcommaaccent" unicode="&#x13c;" horiz-adv-x="240" 
d="M199 714h138l-148 -714h-138zM167 -50l-20 -97q-7 -33 -20 -53.5t-29 -32t-34 -15.5t-36 -5l7 36q18 5 29.5 15.5t17.5 33.5h-51l24 118h112z" />
    <glyph glyph-name="nacute" unicode="&#x144;" horiz-adv-x="500" 
d="M157 538h132l-13 -63h2q30 40 69 58.5t84 18.5q66 0 94 -36t11 -117l-82 -399h-138l77 371q8 42 -2.5 58.5t-41.5 16.5q-73 0 -91 -89l-74 -357h-138zM388 746h138l-128 -144h-94z" />
    <glyph glyph-name="ncaron" unicode="&#x148;" horiz-adv-x="500" 
d="M157 538h132l-13 -63h2q30 40 69 58.5t84 18.5q66 0 94 -36t11 -117l-82 -399h-138l77 371q8 42 -2.5 58.5t-41.5 16.5q-73 0 -91 -89l-74 -357h-138zM236 746h106l29 -85l65 85h100l-108 -144h-144z" />
    <glyph glyph-name="ncommaaccent" unicode="&#x146;" horiz-adv-x="500" 
d="M157 538h132l-13 -63h2q30 40 69 58.5t84 18.5q66 0 94 -36t11 -117l-82 -399h-138l77 371q8 42 -2.5 58.5t-41.5 16.5q-73 0 -91 -89l-74 -357h-138zM296 -50l-20 -97q-7 -33 -20 -53.5t-29 -32t-34 -15.5t-36 -5l7 36q18 5 29.5 15.5t17.5 33.5h-51l24 118h112z" />
    <glyph glyph-name="napostrophe" unicode="&#x149;" horiz-adv-x="530" 
d="M187 538h132l-13 -63h2q30 40 69 58.5t84 18.5q66 0 94 -36t11 -117l-82 -399h-138l77 371q8 42 -2.5 58.5t-41.5 16.5q-73 0 -91 -89l-74 -357h-138zM312 832l-20 -97q-7 -33 -20 -53.5t-29 -32t-34 -15.5t-36 -5l7 36q18 5 29.5 15.5t17.5 33.5h-51l24 118h112z" />
    <glyph glyph-name="omacron" unicode="&#x14d;" 
d="M221 269q-8 -41 -13.5 -76t-3 -60t14 -39t37.5 -14q42 0 67.5 44t45.5 145q21 101 14.5 145t-48.5 44q-26 0 -43.5 -14t-30.5 -39t-22 -60t-18 -76zM83 269q15 69 37 122t54 88.5t76.5 54t103.5 18.5q62 1 99.5 -16.5t54.5 -53.5t15.5 -89.5t-16.5 -123.5
q-14 -69 -35.5 -122t-54 -88.5t-77 -54t-103.5 -18.5q-63 -1 -100.5 16.5t-54 53.5t-15 89t15.5 124zM526 712l-16 -76h-294l16 76h294z" />
    <glyph glyph-name="obreve" unicode="&#x14f;" 
d="M221 269q-8 -41 -13.5 -76t-3 -60t14 -39t37.5 -14q42 0 67.5 44t45.5 145q21 101 14.5 145t-48.5 44q-26 0 -43.5 -14t-30.5 -39t-22 -60t-18 -76zM83 269q15 69 37 122t54 88.5t76.5 54t103.5 18.5q62 1 99.5 -16.5t54.5 -53.5t15.5 -89.5t-16.5 -123.5
q-14 -69 -35.5 -122t-54 -88.5t-77 -54t-103.5 -18.5q-63 -1 -100.5 16.5t-54 53.5t-15 89t15.5 124zM312 745q-3 -29 14.5 -47t46.5 -18t53.5 18t33.5 47h65q-5 -20 -16.5 -44.5t-31.5 -46t-49.5 -36t-70.5 -14.5t-64.5 14.5t-35 36t-13 46t2.5 44.5h65z" />
    <glyph glyph-name="ohungarumlaut" unicode="&#x151;" 
d="M221 269q-8 -41 -13.5 -76t-3 -60t14 -39t37.5 -14q42 0 67.5 44t45.5 145q21 101 14.5 145t-48.5 44q-26 0 -43.5 -14t-30.5 -39t-22 -60t-18 -76zM83 269q15 69 37 122t54 88.5t76.5 54t103.5 18.5q62 1 99.5 -16.5t54.5 -53.5t15.5 -89.5t-16.5 -123.5
q-14 -69 -35.5 -122t-54 -88.5t-77 -54t-103.5 -18.5q-63 -1 -100.5 16.5t-54 53.5t-15 89t15.5 124zM481 746h138l-128 -144h-94zM315 746h138l-128 -144h-94z" />
    <glyph glyph-name="racute" unicode="&#x155;" horiz-adv-x="333" 
d="M157 538h132l-15 -72h2q29 39 64 62.5t78 23.5q6 0 12.5 -0.5t12.5 -1.5l-28 -132q-10 1 -20.5 1.5t-21.5 0.5q-18 0 -37 -5t-36 -16.5t-30 -30t-19 -45.5l-67 -323h-138zM287 746h138l-128 -144h-94z" />
    <glyph glyph-name="rcommaaccent" unicode="&#x157;" horiz-adv-x="333" 
d="M157 538h132l-15 -72h2q29 39 64 62.5t78 23.5q6 0 12.5 -0.5t12.5 -1.5l-28 -132q-10 1 -20.5 1.5t-21.5 0.5q-18 0 -37 -5t-36 -16.5t-30 -30t-19 -45.5l-67 -323h-138zM163 -50l-20 -97q-7 -33 -20 -53.5t-29 -32t-34 -15.5t-36 -5l7 36q18 5 29.5 15.5t17.5 33.5h-51
l24 118h112z" />
    <glyph glyph-name="rcaron" unicode="&#x159;" horiz-adv-x="333" 
d="M157 538h132l-15 -72h2q29 39 64 62.5t78 23.5q6 0 12.5 -0.5t12.5 -1.5l-28 -132q-10 1 -20.5 1.5t-21.5 0.5q-18 0 -37 -5t-36 -16.5t-30 -30t-19 -45.5l-67 -323h-138zM168 746h106l29 -85l65 85h100l-108 -144h-144z" />
    <glyph glyph-name="sacute" unicode="&#x15b;" horiz-adv-x="444" 
d="M183 176l-4 -18q-7 -35 7 -56.5t49 -21.5q32 0 54 16t29 48q6 26 -6 39.5t-31 21.5l-90 35q-54 20 -74.5 56.5t-8.5 93.5q7 33 24 62.5t45.5 51.5t68.5 35t93 13q94 0 131 -40t21 -113l-4 -22h-124q8 42 -1 61.5t-43 19.5q-26 0 -48.5 -14.5t-28.5 -43.5q-5 -20 5 -36
t42 -27l77 -28q61 -22 80.5 -57.5t6.5 -96.5q-9 -42 -30.5 -74t-52.5 -53t-70 -31.5t-82 -10.5q-59 0 -94.5 12t-53.5 34.5t-20.5 54t5.5 70.5l4 19h124zM373 746h138l-128 -144h-94z" />
    <glyph glyph-name="scircumflex" unicode="&#x15d;" horiz-adv-x="444" 
d="M183 176l-4 -18q-7 -35 7 -56.5t49 -21.5q32 0 54 16t29 48q6 26 -6 39.5t-31 21.5l-90 35q-54 20 -74.5 56.5t-8.5 93.5q7 33 24 62.5t45.5 51.5t68.5 35t93 13q94 0 131 -40t21 -113l-4 -22h-124q8 42 -1 61.5t-43 19.5q-26 0 -48.5 -14.5t-28.5 -43.5q-5 -20 5 -36
t42 -27l77 -28q61 -22 80.5 -57.5t6.5 -96.5q-9 -42 -30.5 -74t-52.5 -53t-70 -31.5t-82 -10.5q-59 0 -94.5 12t-53.5 34.5t-20.5 54t5.5 70.5l4 19h124zM310 746h144l48 -144h-106l-28 85l-66 -85h-100z" />
    <glyph glyph-name="scedilla" unicode="&#x15f;" horiz-adv-x="444" 
d="M183 176l-4 -18q-7 -35 7 -56.5t49 -21.5q32 0 54 16t29 48q6 26 -6 39.5t-31 21.5l-90 35q-54 20 -74.5 56.5t-8.5 93.5q7 33 24 62.5t45.5 51.5t68.5 35t93 13q94 0 131 -40t21 -113l-4 -22h-124q8 42 -1 61.5t-43 19.5q-26 0 -48.5 -14.5t-28.5 -43.5q-5 -20 5 -36
t42 -27l77 -28q61 -22 80.5 -57.5t6.5 -96.5q-14 -63 -54.5 -103t-98.5 -55q-14 -4 -28.5 -6.5t-29.5 -3.5l-38 -45q10 3 17.5 4t19.5 1q16 0 29 -4.5t22 -13.5t12.5 -22.5t-0.5 -31.5q-10 -42 -47.5 -67t-98.5 -25q-28 0 -50 4.5t-45 14.5l28 46q17 -9 32 -12t33 -3
q21 0 37.5 10t20.5 22q4 15 -6.5 24.5t-30.5 9.5q-11 0 -18.5 -1.5t-16.5 -4.5l-18 20l64 74q-37 1 -64 11q-55 18 -68 59t-1 100l4 19h124z" />
    <glyph glyph-name="scedilla" unicode="&#xf6c2;" horiz-adv-x="444" 
d="M183 176l-4 -18q-7 -35 7 -56.5t49 -21.5q32 0 54 16t29 48q6 26 -6 39.5t-31 21.5l-90 35q-54 20 -74.5 56.5t-8.5 93.5q7 33 24 62.5t45.5 51.5t68.5 35t93 13q94 0 131 -40t21 -113l-4 -22h-124q8 42 -1 61.5t-43 19.5q-26 0 -48.5 -14.5t-28.5 -43.5q-5 -20 5 -36
t42 -27l77 -28q61 -22 80.5 -57.5t6.5 -96.5q-14 -63 -54.5 -103t-98.5 -55q-14 -4 -28.5 -6.5t-29.5 -3.5l-38 -45q10 3 17.5 4t19.5 1q16 0 29 -4.5t22 -13.5t12.5 -22.5t-0.5 -31.5q-10 -42 -47.5 -67t-98.5 -25q-28 0 -50 4.5t-45 14.5l28 46q17 -9 32 -12t33 -3
q21 0 37.5 10t20.5 22q4 15 -6.5 24.5t-30.5 9.5q-11 0 -18.5 -1.5t-16.5 -4.5l-18 20l64 74q-37 1 -64 11q-55 18 -68 59t-1 100l4 19h124z" />
    <glyph glyph-name="scommaaccent" unicode="&#x219;" horiz-adv-x="444" 
d="M183 176l-4 -18q-7 -35 7 -56.5t49 -21.5q32 0 54 16t29 48q6 26 -6 39.5t-31 21.5l-90 35q-54 20 -74.5 56.5t-8.5 93.5q7 33 24 62.5t45.5 51.5t68.5 35t93 13q94 0 131 -40t21 -113l-4 -22h-124q8 42 -1 61.5t-43 19.5q-26 0 -48.5 -14.5t-28.5 -43.5q-5 -20 5 -36
t42 -27l77 -28q61 -22 80.5 -57.5t6.5 -96.5q-9 -42 -30.5 -74t-52.5 -53t-70 -31.5t-82 -10.5q-59 0 -94.5 12t-53.5 34.5t-20.5 54t5.5 70.5l4 19h124zM268 -50l-20 -97q-7 -33 -20 -53.5t-29 -32t-34 -15.5t-36 -5l7 36q18 5 29.5 15.5t17.5 33.5h-51l24 118h112z" />
    <glyph glyph-name="tcaron" unicode="&#x165;" horiz-adv-x="408" 
d="M465 714h122l-94 -144h-88zM219 692h138l-32 -154h80l-19 -94h-80l-61 -291q-6 -32 0.5 -45.5t36.5 -13.5q8 0 16 0.5t15 1.5l-19 -96l-45.5 -4t-46.5 -2q-41 0 -64.5 7t-34 23.5t-9.5 43.5t10 68l64 308h-70l19 94h70z" />
    <glyph glyph-name="tcommaaccent" unicode="&#x163;" horiz-adv-x="296" 
d="M219 692h138l-32 -154h80l-19 -94h-80l-61 -291q-6 -32 0.5 -45.5t36.5 -13.5q8 0 16 0.5t15 1.5l-19 -96l-45.5 -4t-46.5 -2q-41 0 -64.5 7t-34 23.5t-9.5 43.5t10 68l64 308h-70l19 94h70zM237 -50l-20 -97q-7 -33 -20 -53.5t-29 -32t-34 -15.5t-36 -5l7 36
q18 5 29.5 15.5t17.5 33.5h-51l24 118h112z" />
    <glyph glyph-name="tbar" unicode="&#x167;" horiz-adv-x="296" 
d="M219 692h138l-32 -154h80l-19 -94h-80l-21 -98h88l-13 -61h-88l-27 -132q-6 -32 0.5 -45.5t36.5 -13.5q8 0 16 0.5t15 1.5l-19 -96l-45.5 -4t-46.5 -2q-41 0 -64.5 7t-34 23.5t-9.5 43.5t10 68l31 149h-79l13 61h78l21 98h-70l19 94h70z" />
    <glyph glyph-name="utilde" unicode="&#x169;" horiz-adv-x="500" 
d="M335 63h-2q-30 -40 -69 -58.5t-84 -18.5q-66 0 -94.5 36t-11.5 117l83 399h138l-77 -371q-8 -42 2.5 -58.5t41.5 -16.5q73 0 91 89l74 357h138l-111 -538h-132zM211 611q21 60 51 92t68 32q28 0 42 -7l43 -21q13 -6 29 -6q14 0 24 13t12 23h72q-9 -27 -21.5 -49.5
t-27.5 -39t-33 -26t-37 -9.5q-16 0 -31 5.5t-29 11.5l-27 11.5t-25 5.5q-24 0 -40 -36h-70z" />
    <glyph glyph-name="umacron" unicode="&#x16b;" horiz-adv-x="500" 
d="M335 63h-2q-30 -40 -69 -58.5t-84 -18.5q-66 0 -94.5 36t-11.5 117l83 399h138l-77 -371q-8 -42 2.5 -58.5t41.5 -16.5q73 0 91 89l74 357h138l-111 -538h-132zM537 712l-16 -76h-294l16 76h294z" />
    <glyph glyph-name="ubreve" unicode="&#x16d;" horiz-adv-x="500" 
d="M335 63h-2q-30 -40 -69 -58.5t-84 -18.5q-66 0 -94.5 36t-11.5 117l83 399h138l-77 -371q-8 -42 2.5 -58.5t41.5 -16.5q73 0 91 89l74 357h138l-111 -538h-132zM317 745q-3 -29 14.5 -47t46.5 -18t53.5 18t33.5 47h65q-5 -20 -16.5 -44.5t-31.5 -46t-49.5 -36
t-70.5 -14.5t-64.5 14.5t-35 36t-13 46t2.5 44.5h65z" />
    <glyph glyph-name="uring" unicode="&#x16f;" horiz-adv-x="500" 
d="M335 63h-2q-30 -40 -69 -58.5t-84 -18.5q-66 0 -94.5 36t-11.5 117l83 399h138l-77 -371q-8 -42 2.5 -58.5t41.5 -16.5q73 0 91 89l74 357h138l-111 -538h-132zM330 690q-10 -58 46 -58q24 0 44.5 17t25.5 41q10 58 -46 58q-24 0 -44.5 -17t-25.5 -41zM274 690
q11 50 50.5 80t87.5 30q46 0 73 -29.5t17 -80.5q-5 -24 -18.5 -45t-32.5 -35.5t-41.5 -22t-45.5 -5.5q-23 -2 -42 5.5t-31.5 22t-17.5 35t1 45.5z" />
    <glyph glyph-name="uhungarumlaut" unicode="&#x171;" horiz-adv-x="500" 
d="M335 63h-2q-30 -40 -69 -58.5t-84 -18.5q-66 0 -94.5 36t-11.5 117l83 399h138l-77 -371q-8 -42 2.5 -58.5t41.5 -16.5q73 0 91 89l74 357h138l-111 -538h-132zM490 746h138l-128 -144h-94zM324 746h138l-128 -144h-94z" />
    <glyph glyph-name="uogonek" unicode="&#x173;" horiz-adv-x="500" 
d="M389 -175q-32 -25 -56.5 -33.5t-55.5 -8.5q-24 0 -40 7.5t-24 19t-10 26.5t1 30q8 36 37.5 66.5t80.5 67.5l13 63h-2q-30 -40 -69 -58.5t-84 -18.5q-66 0 -94.5 36t-11.5 117l83 399h138l-77 -371q-8 -42 2.5 -58.5t41.5 -16.5q73 0 91 89l74 357h138l-111 -538h-76
q-50 -51 -63 -69q-14 -18 -21 -30t-9 -25q-4 -13 3 -20.5t19 -7.5t22 4t28 16z" />
    <glyph glyph-name="wcircumflex" unicode="&#x175;" horiz-adv-x="704" 
d="M118 538h138l-16 -382h2l146 382h150l-8 -382h2l144 382h132l-227 -538h-157l8 382h-2l-146 -382h-160zM432 746h144l48 -144h-106l-28 85l-66 -85h-100z" />
    <glyph glyph-name="ycircumflex" unicode="&#x177;" horiz-adv-x="444" 
d="M30 -73q18 -3 36 -3q38 0 58.5 20t31.5 56l-40 538h144l3 -372h2l147 372h138l-234 -502q-33 -70 -58 -111.5t-52 -64t-60 -29.5t-81 -7h-56zM309 746h144l48 -144h-106l-28 85l-66 -85h-100z" />
    <glyph glyph-name="zacute" unicode="&#x17a;" horiz-adv-x="426" 
d="M46 106l281 320h-205l23 112h368l-22 -106l-281 -320h215l-23 -112h-378zM361 746h138l-128 -144h-94z" />
    <glyph glyph-name="zdotaccent" unicode="&#x17c;" horiz-adv-x="426" 
d="M46 106l281 320h-205l23 112h368l-22 -106l-281 -320h215l-23 -112h-378zM413 733l-25 -118h-112l25 118h112z" />
    <glyph glyph-name="IJ" unicode="&#x132;" horiz-adv-x="720" 
d="M57 0l148 714h144l-148 -714h-144zM824 714l-107 -514q-24 -114 -87 -164t-172 -50q-57 0 -90 17t-48.5 45.5t-16 66.5t8.5 80l6 31h132l-4 -22q-12 -57 -5 -84.5t46 -27.5t57 27.5t30 84.5l106 510h144z" />
    <glyph glyph-name="ij" unicode="&#x133;" 
d="M201 722h138l-25 -118h-138zM162 538h138l-111 -538h-138zM441 722h138l-25 -118h-138zM402 538h138l-119 -575q-7 -34 -19.5 -60t-34.5 -43.5t-54 -26.5t-78 -9q-12 0 -26.5 0.5t-29.5 1.5l21 100q6 -2 11 -2h11q18 0 29.5 5t19 15.5t12.5 26.5t10 39z" />
    <glyph glyph-name="Ldot" unicode="&#x13f;" horiz-adv-x="463" 
d="M50 0l148 714h144l-124 -596h255l-24 -118h-399zM483 538l-25 -118h-112l25 118h112z" />
    <glyph glyph-name="ldot" unicode="&#x140;" horiz-adv-x="370" 
d="M199 714h138l-148 -714h-138zM469 538l-25 -118h-112l25 118h112z" />
    <glyph glyph-name="estimated" unicode="&#x212e;" horiz-adv-x="600" 
d="M157 259v-181q59 -59 145 -59q63 0 109 28.5t84 91.5l35 -21q-23 -36 -46.5 -61.5t-51 -42t-59.5 -24t-71 -7.5q-59 0 -106.5 21.5t-81.5 59t-52 87.5t-18 108t18 108.5t52 87.5t81.5 58.5t106.5 21.5q58 0 105.5 -20.5t81.5 -57t53 -87t19 -111.5h-404zM448 295v145
q-63 60 -147 60t-144 -60v-145h291z" />
    <glyph glyph-name="afii61289" unicode="&#x2113;" horiz-adv-x="500" 
d="M496 597q0 -85 -65 -164.5t-192 -165.5q-10 -42 -15.5 -67t-8.5 -40t-3.5 -22t-0.5 -12q0 -25 13 -35.5t31 -10.5q20 0 42 9t56 31h2l32 -75q-44 -31 -84.5 -45t-85.5 -14q-65 0 -100 32t-35 85q0 4 0.5 9.5t2 14.5t4 22.5l6.5 33.5l-61 -47h-2l-35 73l121 83l50 239
q19 91 73.5 140.5t129.5 49.5q28 0 51 -9.5t39.5 -26.5t25.5 -39.5t9 -48.5zM389 591q0 19 -9 32t-23 13q-18 0 -32.5 -17t-22.5 -57l-39 -182q24 20 46.5 45.5t40.5 53t28.5 56.5t10.5 56z" />
    <glyph glyph-name="quotedbl" unicode="&#x22;" horiz-adv-x="463" 
d="M220 714h124l-67 -321h-124zM415 714h124l-67 -321h-124z" />
    <glyph glyph-name="exclam" unicode="!" horiz-adv-x="296" 
d="M244 132l-27 -132h-138l27 132h138zM139 199l40 283l48 232h138l-48 -232l-78 -283h-100z" />
    <glyph glyph-name="uni00A0" unicode="&#xa0;" horiz-adv-x="240" 
 />
    <glyph glyph-name="Dcroat" unicode="&#x110;" horiz-adv-x="574" 
d="M288 421h93l-22 -106h-93l-43 -209h64q37 0 63.5 13t45.5 43t34 79t30 122q13 61 18.5 106.5t-0.5 76.5t-27.5 46.5t-62.5 15.5h-61zM122 315h-57l22 106h57l61 293h236q75 0 116 -24.5t57 -70t11.5 -109.5t-20.5 -143q-20 -95 -45.5 -164t-63 -114t-89 -67t-123.5 -22
h-227z" />
    <glyph glyph-name="uni021A" unicode="&#x21a;" 
d="M616 714l-25 -118h-156l-123 -596h-144l123 596h-156l25 118h456zM287 -50l-20 -97q-7 -33 -20 -53.5t-29 -32t-34 -15.5t-36 -5l7 36q18 5 29.5 15.5t17.5 33.5h-51l24 118h112z" />
    <glyph glyph-name="grave.cap" horiz-adv-x="222" 
d="M205 756l-68 144h138l24 -144h-94z" />
    <glyph glyph-name="uni021B" unicode="&#x21b;" horiz-adv-x="296" 
d="M219 692h138l-32 -154h80l-19 -94h-80l-61 -291q-6 -32 0.5 -45.5t36.5 -13.5q8 0 16 0.5t15 1.5l-19 -96l-45.5 -4t-46.5 -2q-41 0 -64.5 7t-34 23.5t-9.5 43.5t10 68l64 308h-70l19 94h70zM237 -50l-20 -97q-7 -33 -20 -53.5t-29 -32t-34 -15.5t-36 -5l7 36
q18 5 29.5 15.5t17.5 33.5h-51l24 118h112z" />
    <glyph glyph-name="uni00AD" unicode="&#xad;" horiz-adv-x="370" 
d="M398 348l-25 -118h-282l25 118h282z" />
    <glyph glyph-name="uni2219" unicode="&#x2219;" horiz-adv-x="240" 
d="M81 282q4 20 15.5 38t27 31t35 20.5t39.5 7.5q42 0 63.5 -27.5t13.5 -69.5q-4 -20 -15.5 -38t-27 -31t-35 -20.5t-39.5 -7.5q-42 0 -63.5 27.5t-13.5 69.5z" />
    <glyph glyph-name="uni2215" unicode="&#x2215;" horiz-adv-x="167" 
d="M392 725h89l-562 -756h-89z" />
    <glyph glyph-name="uni03A9" unicode="&#x3a9;" horiz-adv-x="759" 
d="M704 449q0 -54 -17.5 -105.5t-49 -94t-76.5 -72t-100 -38.5l-9 -41h186l-21 -98h-277l42 197q43 7 79 29.5t62.5 55.5t41 74t14.5 84q0 79 -45.5 126t-124.5 47q-53 0 -98 -22.5t-77 -59.5t-50 -84.5t-18 -98.5q0 -28 7 -53.5t21 -45.5t35.5 -34t51.5 -18l-42 -197h-269
l21 98h176l11 47q-34 10 -59.5 30.5t-43 47.5t-26 59.5t-8.5 66.5q0 77 30 145t81.5 118.5t119.5 79.5t145 29q61 0 113.5 -19t91 -54.5t60.5 -85.5t22 -113z" />
    <glyph glyph-name="uni03BC" unicode="&#x3bc;" horiz-adv-x="500" 
d="M427 538h138l-111 -538h-132l13 63h-2q-30 -40 -63.5 -58.5t-58.5 -18.5q-11 0 -18 2.5t-11 5.5l-35 -170h-138l148 714h138l-77 -371q-8 -42 2.5 -58.5t41.5 -16.5q73 0 91 89z" />
    <glyph glyph-name="uni0394" unicode="&#x394;" horiz-adv-x="689" 
d="M-78 0l419 712h122l131 -712h-672zM381 576l-269 -469h351z" />
    <glyph glyph-name="uniF8FF" unicode="&#xf8ff;" horiz-adv-x="512" 
d="M222 117v67h56v-67h-56zM225 234l-2 17q0 56 13 81q7 13 18 27.5t28 31.5q16 15 26 26.5t15 21t7 18t2 17.5q0 36 -22.5 60.5t-53.5 24.5t-53.5 -22t-28.5 -73l-50 8q7 72 44 104.5t91 32.5t89 -35.5t35 -95.5q0 -32 -12.5 -58.5t-50.5 -61.5q-37 -33 -43 -52
q-6 -20 -6 -72h-46zM462 50v617h-412v-617h412zM512 718v-718h-512v718h512z" />
    <glyph glyph-name="acute.cap" horiz-adv-x="222" 
d="M253 900h138l-128 -144h-94z" />
    <glyph glyph-name="circumflex.cap" horiz-adv-x="222" 
d="M192 900h144l48 -144h-106l-28 85l-66 -85h-100z" />
    <glyph glyph-name="caron.cap" horiz-adv-x="222" 
d="M114 900h106l29 -85l65 85h100l-108 -144h-144z" />
    <glyph glyph-name="tilde.cap" horiz-adv-x="222" 
d="M79 765q21 60 51 92t68 32q28 0 42 -7l43 -21q13 -6 29 -6q14 0 24 13t12 23h72q-9 -27 -21.5 -49.5t-27.5 -39t-33 -26t-37 -9.5q-16 0 -31 5.5t-29 11.5l-27 11.5t-25 5.5q-24 0 -40 -36h-70z" />
    <glyph glyph-name="dieresis.cap" horiz-adv-x="222" 
d="M291 887h112l-25 -118h-112zM119 887h112l-25 -118h-112z" />
    <glyph glyph-name="macron.cap" horiz-adv-x="222" 
d="M405 866l-16 -76h-294l16 76h294z" />
    <glyph glyph-name="uni02C9" unicode="&#x2c9;" horiz-adv-x="222" 
d="M405 712l-16 -76h-294l16 76h294z" />
    <glyph glyph-name="breve.cap" horiz-adv-x="222" 
d="M190 899q-3 -29 14.5 -47t46.5 -18t53.5 18t33.5 47h65q-5 -20 -16.5 -44.5t-31.5 -46t-49.5 -36t-70.5 -14.5t-64.5 14.5t-35 36t-13 46t2.5 44.5h65z" />
    <glyph glyph-name="ring.cap" horiz-adv-x="222" 
d="M197 844q-10 -58 46 -58q24 0 44.5 17t25.5 41q10 58 -46 58q-24 0 -44.5 -17t-25.5 -41zM141 844q11 50 50.5 80t87.5 30q46 0 73 -29.5t17 -80.5q-5 -24 -18.5 -45t-32.5 -35.5t-41.5 -22t-45.5 -5.5q-23 -2 -42 5.5t-31.5 22t-17.5 35t1 45.5z" />
    <glyph glyph-name="hungarumlaut.cap" horiz-adv-x="222" 
d="M336 900h138l-128 -144h-94zM170 900h138l-128 -144h-94z" />
    <glyph glyph-name="dotaccent.cap" horiz-adv-x="222" 
d="M317 829l-25 -118h-112l25 118h112z" />
    </font>
</defs>
</svg>
